盘乐网

 找回密码
 加入论坛
提示:多个关键词中间加空格 例如:天龙八部 星河
查看: 2102|回复: 146

[BD-1080P] [中国香港][1985][福星高照][洪金宝/吴耀汉/曾志伟][国粤语简繁软中字][1080P][MKV/5.25G][英版4K蓝光修复无水印][至尊宝] 含百度网盘 含115网盘

  [复制链接]

主题
3180
活跃值
21621
热心值
2597
盘币
377374
注册时间
2018-4-7
最后登录
2022-1-18
在线时间
1795 小时

长期在线阳光心情老会员勋章鼎力支持我是土豪优秀会员普通精华热心人士爱心满满灌水之王荣誉会员资源组成员动漫达人夜猫子

发表于 2021-3-29 09:37:10 | 显示全部楼层 |阅读模式
请尊重分享者,本资源仅限交流未经楼主同意严禁转载或盈利,违者封号处理!
p2630152854_gaitubao_455x631.jpg
◎译  名 My Lucky Stars / 五福星系列Ⅱ:福星高照 / Fuk sing go jiu
◎片  名 福星高照
◎年  代 1985
◎产  地 中国香港
◎类  别 喜剧 / 动作
◎语  言 汉语普通话/粤语
◎上映日期 1985-02-10
◎IMDb评星  ★★★★★★✦☆☆☆
◎IMDb评分  6.5/10 from 5,158 users
◎IMDb链接  https://www.imdb.com/title/tt0089177/
◎豆瓣评星 ★★★★☆
◎豆瓣评分 7.5/10 from 24,259 users
◎豆瓣链接 https://movie.douban.com/subject/1293732/
◎片  长 USA: 96 分钟
◎导  演 洪金宝 / Sammo Hung Kam-Bo
◎演  员 洪金宝 / Sammo Hung Kam-Bo
      成龙 / Jackie Chan
      元彪 / Biao Yuen
      胡慧中 / Sibelle Hu
      吴耀汉 / Richard Ng
      曾志伟 / Eric Tsang
      秦祥林 / Charlie Chin
      西协美智子 / Michiko Nishiwaki
      冯淬帆 / Stanley Fung
      林正英 / Ching-Ying Lam
      元华 / Wah Yuen
      曹达华 / Tat-wah Cho
      刘雅丽 / Alice Lau
      罗浩楷 / Ho Kai Law
      山怪 / Kwai Shan
      彭润祥 / Yun-chiang Peng
      谷轩昭 / Huan-Chiu Ku
      杨斯 / Bolo Yeung
      狄威 / Dick Wei
      刘家荣 / Chia Yung Liu
      张冲 / Paul Chang Chung
◎编  剧 黄炳耀 / Barry Wong
      司徒卓汉 / Chuek-Hon Szeto
◎制  片  人 陈佩华 / Jessica Chan Pooi-Wa
      何冠昌 / Leonard Ho
◎摄  影 黄岳泰 / Arthur Wong
◎美  术 马磐超 / Eddie Ma
◎动作特技 林正英 / Ching-Ying Lam
◎其  它 周少龙 / Shao Lung Chou

◎简  介 

  警界败类三哥(林正英 饰)席卷价值近一亿元的珠宝逃往日本,虽有鸡骨草(成龙 饰)和独角金(元彪 饰)两位干探跟踪追捕,但三哥仍为日本黑社会头目松本所救,鸡骨草二人也陷入危机。
  迫于公众形象限制,香港警方不愿动用本土警力。曹警司(曹达华 饰)找到正在服刑的罪犯鹧鸪菜(洪金宝 饰),希望借助他的力量将三哥引渡回港。鹧鸪菜随后集结孤儿院的好友花旗参(秦祥林 饰)、犀牛皮(冯淬帆 饰)、大生地(吴耀汉 饰)和罗汉果(曾志伟 饰)。在曹警司的威逼利诱下,五个笑料不断的和女警探霸王花踏上前往日本的旅程……

◎获奖情况 

  第5届香港电影金像奖 (1986)
  最佳动作设计(提名) 元彪,林正英


◎幕后揭秘

  "《五福星》系列电影的续集,是成龙与洪金宝合作的功夫喜剧里的一道招牌菜。每当这几位高手一出马便会玩笑大开,丑事连连、花样百出,1985年的《福星高照》是当年的贺岁片,这次五福星们把热闹的舞台搬到了日本,为了迎合几位兄弟的英雄本“色"",这次的女主角换成了同样漂亮的女警司霸王花(胡慧中),途中五人对霸王花大献殷勤,欲得美女垂青而各出奇招。影片笑料层出不穷、花样多多,喜欢功夫喜剧、打打闹闹的朋友们一定不能错过这部《福星高照》。此片上映一星期便有一千万的票房,落画时更有三千万的成绩,拍上了年度卖座第一的位置,是当时嘉禾有史以来最卖座的电影。影片不仅为其赢得巨大的商业成就,洪家班更因此提名一九八五年香港电影金像奖最佳动作设计。"


◎截    图
福星高照.1985.BDRip.My Lucky Stars.GBR.2Audio.@至尊宝.mkv_20220113_140917.736.jpg 福星高照.1985.BDRip.My Lucky Stars.GBR.2Audio.@至尊宝.mkv_20220113_140909.189.jpg 福星高照.1985.BDRip.My Lucky Stars.GBR.2Audio.@至尊宝.mkv_20220113_140814.036.jpg 福星高照.1985.BDRip.My Lucky Stars.GBR.2Audio.@至尊宝.mkv_20220113_140754.639.jpg

福星高照.1985.BDRip.My Lucky Stars.GBR.2Audio.@至尊宝.mkv.jpg

  1. Video
  2. ID                             : 1
  3. Format                         : HEVC
  4. Format/Info                    : High Efficiency Video Coding
  5. Format profile                 : Main 10@L4@Main
  6. Codec ID                       : V_MPEGH/ISO/HEVC
  7. Duration                       : 1 h 36 min
  8. Bit rate                       : 6 461 kb/s
  9. Width                          : 1 920 pixels
  10. Height                         : 1 080 pixels
  11. Display aspect ratio           : 16:9
  12. Frame rate mode                : Constant
  13. Frame rate                     : 23.976 (24000/1001) FPS
  14. Color space                    : YUV
  15. Chroma subsampling             : 4:2:0
  16. Bit depth                      : 10 bits
  17. Bits/(Pixel*Frame)             : 0.130
  18. Stream size                    : 4.37 GiB (83%)
  19. Title                          : @至尊宝
  20. Writing library                : x265 3.4+12-geff904199:[Windows][GCC 5.4.0][64 bit] 10bit
  21. Encoding settings              : cpuid=1111039 / frame-threads=3 / numa-pools=8 / wpp / no-pmode / no-pme / no-psnr / no-ssim / log-level=2 / input-csp=1 / input-res=1920x1080 / interlace=0 / total-frames=0 / level-idc=0 / high-tier=1 / uhd-bd=0 / ref=1 / no-allow-non-conformance / no-repeat-headers / annexb / no-aud / no-hrd / info / hash=0 / no-temporal-layers / open-gop / min-keyint=24 / keyint=240 / gop-lookahead=0 / bframes=3 / b-adapt=0 / b-pyramid / bframe-bias=0 / rc-lookahead=5 / lookahead-slices=6 / scenecut=0 / hist-scenecut=0 / radl=0 / no-splice / no-intra-refresh / ctu=32 / min-cu-size=16 / no-rect / no-amp / max-tu-size=32 / tu-inter-depth=1 / tu-intra-depth=1 / limit-tu=0 / rdoq-level=0 / dynamic-rd=0.00 / no-ssim-rd / no-signhide / no-tskip / nr-intra=0 / nr-inter=0 / no-constrained-intra / strong-intra-smoothing / max-merge=2 / limit-refs=0 / no-limit-modes / me=0 / subme=0 / merange=57 / temporal-mvp / no-frame-dup / no-hme / no-weightp / no-weightb / no-analyze-src-pics / deblock=0:0 / no-sao / no-sao-non-deblock / rd=2 / selective-sao=0 / early-skip / rskip / fast-intra / no-tskip-fast / no-cu-lossless / no-b-intra / no-splitrd-skip / rdpenalty=0 / psy-rd=0.00 / psy-rdoq=0.00 / no-rd-refine / no-lossless / cbqpoffs=0 / crqpoffs=0 / rc=abr / bitrate=6500 / qcomp=0.60 / qpstep=4 / stats-write=0 / stats-read=0 / ipratio=1.40 / pbratio=1.30 / aq-mode=2 / aq-strength=0.00 / cutree / zone-count=0 / no-strict-cbr / qg-size=32 / no-rc-grain / qpmax=69 / qpmin=0 / no-const-vbv / sar=1 / overscan=0 / videoformat=5 / range=0 / colorprim=2 / transfer=2 / colormatrix=2 / chromaloc=0 / display-window=0 / cll=0,0 / min-luma=0 / max-luma=1023 / log2-max-poc-lsb=8 / vui-timing-info / vui-hrd-info / slices=1 / no-opt-qp-pps / no-opt-ref-list-length-pps / no-multi-pass-opt-rps / scenecut-bias=0.05 / hist-threshold=0.03 / no-opt-cu-delta-qp / no-aq-motion / no-hdr10 / no-hdr10-opt / no-dhdr10-opt / no-idr-recovery-sei / analysis-reuse-level=0 / analysis-save-reuse-level=0 / analysis-load-reuse-level=0 / scale-factor=0 / refine-intra=0 / refine-inter=0 / refine-mv=1 / refine-ctu-distortion=0 / no-limit-sao / ctu-info=0 / no-lowpass-dct / refine-analysis-type=0 / copy-pic=1 / max-ausize-factor=1.0 / no-dynamic-refine / no-single-sei / no-hevc-aq / no-svt / no-field / qp-adaptation-range=1.00 / no-scenecut-aware-qpconformance-window-offsets / right=0 / bottom=0 / decoder-max-rate=0
  22. Language                       : Chinese
  23. Default                        : Yes
  24. Forced                         : No
  25. Color range                    : Limited

  26. Audio #1
  27. ID                             : 2
  28. ID in the original source medi : 4355 (0x1103)
  29. Format                         : AC-3
  30. Format/Info                    : Audio Coding 3
  31. Commercial name                : Dolby Digital
  32. Codec ID                       : A_AC3
  33. Duration                       : 1 h 36 min
  34. Bit rate mode                  : Constant
  35. Bit rate                       : 640 kb/s
  36. Channel(s)                     : 6 channels
  37. Channel layout                 : L R C LFE Ls Rs
  38. Sampling rate                  : 48.0 kHz
  39. Frame rate                     : 31.250 FPS (1536 SPF)
  40. Compression mode               : Lossy
  41. Stream size                    : 443 MiB (8%)
  42. Title                          : 国语
  43. Language                       : Chinese
  44. Service kind                   : Complete Main
  45. Default                        : Yes
  46. Forced                         : No
  47. Original source medium         : Blu-ray

  48. Audio #2
  49. ID                             : 3
  50. Format                         : AC-3
  51. Format/Info                    : Audio Coding 3
  52. Commercial name                : Dolby Digital
  53. Codec ID                       : A_AC3
  54. Duration                       : 1 h 36 min
  55. Bit rate mode                  : Constant
  56. Bit rate                       : 640 kb/s
  57. Channel(s)                     : 6 channels
  58. Channel layout                 : L R C LFE Ls Rs
  59. Sampling rate                  : 48.0 kHz
  60. Frame rate                     : 31.250 FPS (1536 SPF)
  61. Compression mode               : Lossy
  62. Stream size                    : 443 MiB (8%)
  63. Title                          : 粤语
  64. Language                       : Chinese
  65. Service kind                   : Complete Main
  66. Default                        : No
  67. Forced                         : No

  68. Text #1
  69. ID                             : 4
  70. Format                         : ASS
  71. Codec ID                       : S_TEXT/ASS
  72. Codec ID/Info                  : Advanced Sub Station Alpha
  73. Duration                       : 1 h 35 min
  74. Bit rate                       : 137 b/s
  75. Count of elements              : 1364
  76. Compression mode               : Lossless
  77. Stream size                    : 96.2 KiB (0%)
  78. Title                          : 国语简体
  79. Language                       : Chinese
  80. Default                        : Yes
  81. Forced                         : No

  82. Text #2
  83. ID                             : 5
  84. Format                         : ASS
  85. Codec ID                       : S_TEXT/ASS
  86. Codec ID/Info                  : Advanced Sub Station Alpha
  87. Duration                       : 1 h 35 min
  88. Bit rate                       : 137 b/s
  89. Count of elements              : 1364
  90. Compression mode               : Lossless
  91. Stream size                    : 96.2 KiB (0%)
  92. Title                          : 国语繁体
  93. Language                       : Chinese
  94. Default                        : No
  95. Forced                         : No

  96. Text #3
  97. ID                             : 6
  98. Format                         : ASS
  99. Codec ID                       : S_TEXT/ASS
  100. Codec ID/Info                  : Advanced Sub Station Alpha
  101. Duration                       : 1 h 33 min
  102. Bit rate                       : 121 b/s
  103. Count of elements              : 1159
  104. Compression mode               : Lossless
  105. Stream size                    : 82.9 KiB (0%)
  106. Title                          : 粤语简体
  107. Language                       : Chinese
  108. Default                        : No
  109. Forced                         : No

  110. Text #4
  111. ID                             : 7
  112. Format                         : ASS
  113. Codec ID                       : S_TEXT/ASS
  114. Codec ID/Info                  : Advanced Sub Station Alpha
  115. Duration                       : 1 h 33 min
  116. Bit rate                       : 121 b/s
  117. Count of elements              : 1159
  118. Compression mode               : Lossless
  119. Stream size                    : 82.9 KiB (0%)
  120. Title                          : 粤语繁体
  121. Language                       : Chinese
  122. Default                        : No
  123. Forced                         : No

  124. Menu
  125. 00:00:00.000                   : en:第 01 章
  126. 00:09:29.360                   : en:第 02 章
  127. 00:19:11.358                   : en:第 03 章
  128. 00:32:38.206                   : en:第 04 章
  129. 00:41:56.138                   : en:第 05 章
  130. 00:49:15.911                   : en:第 06 章
  131. 00:58:32.425                   : en:第 07 章
  132. 01:07:46.437                   : en:第 08 章
  133. 01:16:56.820                   : en:第 09 章
  134. 01:25:15.110                   : en:第 10 章

复制代码

2022年1月13日更新HEVC 10Bit 版本,追加国配字幕



点击进入百度网盘下载(←购买前请先验证分享链接是否有效)



此处内容付费可见

此处内容需要向楼主支付盘币或购买VIP才能显示 已有 132 人购买 

支付 5 盘币 升级VIP


该资源其他网盘分享渠道→点此了解功能详情

使用115网盘下载(来自 至尊宝c 的分享,下载需要单独支付 5 盘币)

免责申明 - 论坛版权1、本站所有资源均来自会员分享或网络收集整理,仅供会员交流学习,禁用商业用途或盈利,下载后请在24小时之内删除;
2、本站(www.pan6.com)支持正版,本资源版权归版权方所有,观看或阅读请到相应机构购买正版资源;
3、本站资源均来源于网络,本站不参与录制、上传,如本帖侵犯到任何版权问题,请立即告知本站(admin#pan6.com(#=@)),本站将及时予与删除并致以最深的歉意;

点赞

参与人数 6热心值 +6

给力资源,感谢分享! + 1

给力资源,感谢分享! + 1

给力资源,感谢分享! + 1

资源给力! + 1

资源给力! + 1

支持楼主! + 1

查看点赞详情

楼主热贴推荐
华语影视爱好者
BT资源无法下载:戳这里,不会发帖、金币相关等新手问题:戳这里
回复

拉黑 使用道具 举报

为保留有用回复信息,此处有 132 个购买者的感谢留言已隐藏

主题
1705
活跃值
19005
热心值
1606
盘币
53716
注册时间
2016-10-3
最后登录
2022-1-18
在线时间
1304 小时

长期在线阳光心情老会员勋章爱心满满资源组成员普通精华优秀会员动漫达人鼎力支持荣誉会员灌水之王热心人士

发表于 2021-3-29 09:47:30 | 显示全部楼层
沙发是我的  别抢
既是婊子 还立贞洁牌坊?
回复

拉黑 使用道具 举报

主题
0
活跃值
3175
热心值
0
盘币
1606
注册时间
2016-2-15
最后登录
2022-1-18
在线时间
361 小时
发表于 2021-3-29 10:01:46 | 显示全部楼层
不错哦~~~~~
回复

拉黑 使用道具 举报

主题
3
活跃值
2504
热心值
9
盘币
1709
注册时间
2018-5-1
最后登录
2022-1-18
在线时间
1079 小时
发表于 2021-3-29 11:59:24 来自手机 | 显示全部楼层
英语音轨可以去掉!
回复

拉黑 使用道具 举报

主题
9
活跃值
1998
热心值
0
盘币
146
注册时间
2018-2-11
最后登录
2022-1-17
在线时间
66 小时
发表于 2021-3-29 12:14:26 | 显示全部楼层
谢谢楼主分享
回复

拉黑 使用道具 举报

主题
0
活跃值
3294
热心值
0
盘币
796
注册时间
2018-9-13
最后登录
2022-1-14
在线时间
310 小时
发表于 2021-3-29 12:32:47 | 显示全部楼层
不错的东东,谢谢分享!
回复

拉黑 使用道具 举报

主题
78
活跃值
3174
热心值
39
盘币
329
注册时间
2017-6-3
最后登录
2022-1-18
在线时间
522 小时
发表于 2021-3-29 13:39:11 | 显示全部楼层
不错不错
回复

拉黑 使用道具 举报

主题
25
活跃值
966
热心值
10
盘币
330
注册时间
2016-4-8
最后登录
2022-1-18
在线时间
612 小时
QQ
发表于 2021-3-29 13:48:16 | 显示全部楼层
谢谢分享谢谢分享
回复

拉黑 使用道具 举报

主题
0
活跃值
33
热心值
0
盘币
859
注册时间
2019-11-15
最后登录
2021-12-17
在线时间
14 小时
发表于 2021-3-29 14:12:00 | 显示全部楼层
非常经典,谢谢了
回复

拉黑 使用道具 举报

主题
1
活跃值
1624
热心值
0
盘币
73
注册时间
2018-9-22
最后登录
2022-1-16
在线时间
49 小时

老会员勋章超级VIP

发表于 2021-3-29 17:18:24 | 显示全部楼层
不错哦~~~~~
我爱网盘我爱网盘我爱网盘我爱网
回复

拉黑 使用道具 举报

主题
0
活跃值
3118
热心值
0
盘币
71
注册时间
2017-12-3
最后登录
2022-1-17
在线时间
150 小时
发表于 2021-3-29 21:41:38 | 显示全部楼层
最佳坑爹组合,当时的经典佳作啊值得收藏
回复

拉黑 使用道具 举报

主题
0
活跃值
535
热心值
0
盘币
129
注册时间
2017-10-30
最后登录
2022-1-17
在线时间
259 小时
发表于 2021-3-30 00:57:56 | 显示全部楼层
本帖最后由 556678 于 2021-3-30 01:16 编辑

楼主您自压的夏日福星要是有264就好罗。谢谢分享。

点评

夏日福星楼主前两天分享过了吧?7.69G  发表于 2021-3-30 12:23
回复

拉黑 使用道具 举报

主题
0
活跃值
5442
热心值
0
盘币
712
注册时间
2015-9-29
最后登录
2022-1-17
在线时间
172 小时
发表于 2021-4-13 13:59:10 | 显示全部楼层
谢谢楼主分享!
回复

拉黑 使用道具 举报

主题
0
活跃值
201
热心值
0
盘币
13
注册时间
2020-4-9
最后登录
2022-1-12
在线时间
14 小时
发表于 2021-10-26 22:46:01 | 显示全部楼层
谢谢分享,下载收藏
回复

拉黑 使用道具 举报

严禁灌水、讽刺、挖苦、辱骂分享者行为。回复前请详读:点击进入 理性回复,以免永久封禁。
您需要登录后才可以回帖 登录 | 加入论坛

本版积分规则

免责声明:本站所有资源均收集自互联网,没有提供影片资源存储,也未参与录制、上传。若本站收录的资源涉及您的版权或知识产权或其他利益,请附上版权证明邮件告知,在收到邮件后24小时内删除。

Copyright © 2012 [盘乐网] 管理员邮箱:admin#pan6.com(#=@)

站长信箱|sitemap|手机版|小黑屋|百度统计|盘乐网 ( 粤ICP备18120611号 )

快速回复 返回顶部 返回列表