盘乐网

 找回密码
 加入论坛

QQ登录

只需一步,快速开始

提示:多个关键词中间加空格 例如:天龙八部 星河
楼主: qpzmabc

[内地电视剧] [115/BT][1994年][三国演义][4K数码修复收藏版][国语中字][4K.2160p.WEPB-DL.H265.AAC][84集全][MKV/每集1.4-2.8GB不等][166.37GB] 含百度网盘 含115网盘

  [复制链接]

主题
1897
活跃值
16157
热心值
362
盘币
1336
注册时间
2017-12-18
最后登录
2021-10-19
在线时间
574 小时

阳光心情资源组成员老会员勋章长期在线荣誉会员普通精华优秀会员灌水之王热心人士鼎力支持夜猫子动漫达人

发表于 2020-12-14 19:31:54 | 显示全部楼层 |阅读模式
请尊重分享者,本资源仅限交流未经楼主同意严禁转载或盈利,违者封号处理!



导演: 王扶林 / 张绍林 / 蔡晓晴 / 孙光明 / 张中一 / 沈好放
编剧: 罗贯中 / 杜家福 / 朱晓平 / 刘树生 / 叶式生 / 周锴 / 李一波
主演: 唐国强 / 孙彦军 / 鲍国安 / 李靖飞 / 陆树铭 /
类型: 剧情 / 历史 / 战争
制片国家/地区: 中国内地
语言: 汉语普通话
首播: 1994-10-23(中国内地)
集数: 84
单集片长: 45分钟
又名: The Romance of Three Kingdoms


中国内地
84 集
84集电视连续剧《三国演义》根据中国古典文学四大名著之一的《三国演义》改编,由中国电视剧制作中心、中央电视台制作,王扶林担任总导演,蔡晓晴、张绍林、孙光明、张中一、沈好放任分部导演,孙彦军、唐国强、鲍国安、吴晓东、陆树铭、李靖飞、洪宇宙、魏宗万、张光北主演,总投资1.7亿元人民币。
该剧演述的是三国时代的故事,是魏、蜀、吴的兴亡史,共分为《群雄逐鹿》(1—23集)、《赤壁鏖战》(24—47集)、《三足鼎立》(48—64集)、《南征北战》(65—77集)、《三分归一》(78—84集)五大部分。着重表现的是乱世中多个政治集团间错综复杂、紧张尖锐的斗争;这种斗争发展成为连接不断的对政治权力的争夺和军事冲突,造就了从东汉末年到西晋初年将近一个世纪中的风云变幻。 [1]
该剧于1994年10月23日在中央电视台一套首播。缅语配音版《三国演义》开播仪式于2019年9月14日在缅甸仰光举行。


General
Complete name                  :\三国演义.The.Romance.Of.Three.Kingdoms.1994.EP01.4K.2160p.WEPB-DL.H265.AAC-DHTCLUB.mp4
Format                         : MPEG-4
Format profile                 : Base Media
Codec ID                       : isom (isom/iso2/mp41)
File size                      : 1.85 GiB
Duration                       : 46 min 23 s
Overall bit rate mode          : Variable
Overall bit rate               : 5 697 kb/s
Writing application            : Lavf58.30.100


Video
ID                             : 1
Format                         : HEVC
Format/Info                    : High Efficiency Video Coding
Format profile                 : Main@L5@Main
Codec ID                       : hev1
Codec ID/Info                  : High Efficiency Video Coding
Duration                       : 46 min 23 s
Bit rate                       : 5 500 kb/s
Width                          : 3 192 pixels
Height                         : 2 160 pixels
Display aspect ratio           : 3:2
Frame rate mode                : Constant
Frame rate                     : 25.000 FPS
Color space                    : YUV
Chroma subsampling             : 4:2:0
Bit depth                      : 8 bits
Bits/(Pixel*Frame)             : 0.032
Stream size                    : 1.78 GiB (97%)
Codec configuration box        : hvcC


Audio
ID                             : 2
Format                         : AAC LC
Format/Info                    : Advanced Audio Codec Low Complexity
Codec ID                       : mp4a-40-2
Duration                       : 46 min 23 s
Bit rate mode                  : Variable
Bit rate                       : 192 kb/s
Channel(s)                     : 2 channels
Channel layout                 : L R
Sampling rate                  : 44.1 kHz
Frame rate                     : 43.066 FPS (1024 SPF)
Compression mode               : Lossy
Stream size                    : 62.9 MiB (3%)
Default                        : Yes
Alternate group                : 1

老片源重新修复的4K版本,虽然不能和现在的4K清晰度相比,但也可能是目前最好的版本。


点击进入115网盘下载(←购买前请先验证分享链接是否有效)
&#
三国演义.The.Romance.Of.Three.Kingdoms.1994.4K.2160p.WEPB-DL.H265.AAC-DHTCLUB


链接:
点击进入百度网盘下载(←购买前请先验证分享链接是否有效)

此处内容付费可见

此处内容需要向楼主支付盘币或购买VIP才能显示 已有 93 人购买 

支付 12 盘币 升级VIP
免责申明 - 论坛版权1、本站所有资源均来自会员分享或网络收集整理,仅供会员交流学习,禁用商业用途或盈利,下载后请在24小时之内删除;
2、本站(www.pan6.com)支持正版,本资源版权归版权方所有,观看或阅读请到相应机构购买正版资源;
3、本站资源均来源于网络,本站不参与录制、上传,如本帖侵犯到任何版权问题,请立即告知本站(admin#pan6.com(#=@)),本站将及时予与删除并致以最深的歉意;

点赞

参与人数 1热心值 +1

给力资源,感谢分享! + 1

查看点赞详情

楼主热贴推荐
BT资源无法下载:戳这里,不会发帖、金币相关等新手问题:戳这里
回复

拉黑 使用道具 举报

为保留有用回复信息,此处有 93 个购买者的感谢留言已隐藏

主题
114
活跃值
3655
热心值
195
盘币
24137
注册时间
2017-3-7
最后登录
2021-10-18
在线时间
246 小时

长期在线老会员勋章阳光心情普通精华热心人士

发表于 2020-12-15 06:22:29 | 显示全部楼层
截图看看
回复

拉黑 使用道具 举报

主题
0
活跃值
90
热心值
0
盘币
941
注册时间
2018-7-16
最后登录
2021-10-19
在线时间
81 小时
发表于 2020-12-15 11:02:11 | 显示全部楼层
同求截图
回复

拉黑 使用道具 举报

主题
1897
活跃值
16157
热心值
362
盘币
1336
注册时间
2017-12-18
最后登录
2021-10-19
在线时间
574 小时

阳光心情资源组成员老会员勋章长期在线荣誉会员普通精华优秀会员灌水之王热心人士鼎力支持夜猫子动漫达人

 楼主| 发表于 2020-12-15 12:52:43 | 显示全部楼层

发一集,自己试看一下吧:
https://115.com/s/sw305s83hxs?password=fdb9&#
三国演义.The.Romance.Of.Three.Kingdoms.1994.EP01.4K.2160p.WEPB-DL.H265.AAC-DHTCLUB.mp4
访问码:fdb9
回复

拉黑 使用道具 举报

主题
1897
活跃值
16157
热心值
362
盘币
1336
注册时间
2017-12-18
最后登录
2021-10-19
在线时间
574 小时

阳光心情资源组成员老会员勋章长期在线荣誉会员普通精华优秀会员灌水之王热心人士鼎力支持夜猫子动漫达人

 楼主| 发表于 2020-12-15 12:53:33 | 显示全部楼层

发一集,自己试看一下吧:
https://115.com/s/sw305s83hxs?password=fdb9&#
三国演义.The.Romance.Of.Three.Kingdoms.1994.EP01.4K.2160p.WEPB-DL.H265.AAC-DHTCLUB.mp4
访问码:fdb9
回复

拉黑 使用道具 举报

主题
114
活跃值
3655
热心值
195
盘币
24137
注册时间
2017-3-7
最后登录
2021-10-18
在线时间
246 小时

长期在线老会员勋章阳光心情普通精华热心人士

发表于 2020-12-15 21:37:34 | 显示全部楼层
qpzmabc 发表于 2020-12-15 12:53
发一集,自己试看一下吧:
https://115.com/s/sw305s83hxs?password=fdb9&#
三国演义.The.Romance.Of.Thr ...

ok 谢谢
回复

拉黑 使用道具 举报

主题
0
活跃值
32
热心值
0
盘币
296
注册时间
2021-1-21
最后登录
2021-10-19
在线时间
143 小时
发表于 2021-1-23 02:41:14 | 显示全部楼层
本帖最后由 涂涂115ok 于 2021-1-23 02:43 编辑

楼主,我已经买你资源了,里面没有39集,赤壁大战!,不好意思,刚看到!有,在第一个!
回复

拉黑 使用道具 举报

主题
1
活跃值
5899
热心值
0
盘币
82
注册时间
2015-12-6
最后登录
2021-10-18
在线时间
125 小时
发表于 2021-1-30 21:50:15 | 显示全部楼层
太差,什么4k修复版,有水印的,关键还打了马赛克遮挡。

点评

是不是挡台标和广告那种啊  发表于 2021-3-5 17:38
回复

拉黑 使用道具 举报

主题
19
活跃值
1523
热心值
35
盘币
1951
注册时间
2017-8-6
最后登录
2021-10-17
在线时间
448 小时
发表于 2021-5-7 22:58:20 来自手机 | 显示全部楼层
qlf330 发表于 2021-1-30 21:50
太差,什么4k修复版,有水印的,关键还打了马赛克遮挡。

cctv8遮台标版
回复

拉黑 使用道具 举报

主题
6
活跃值
246
热心值
4
盘币
155
注册时间
2018-6-5
最后登录
2021-10-7
在线时间
25 小时
发表于 2021-5-14 15:44:11 | 显示全部楼层
有没搞错,花了我12盘币,就买回来马赛克加 迅雷下载版?
回复

拉黑 使用道具 举报

主题
0
活跃值
0
热心值
0
盘币
8
注册时间
2021-6-11
最后登录
2021-8-24
在线时间
2 小时
发表于 2021-6-20 22:13:43 | 显示全部楼层
希望能给个截图看看效果,有对比才能决定是否购买。
回复

拉黑 使用道具 举报

严禁灌水、讽刺、挖苦、辱骂分享者行为。回复前请详读:点击进入 理性回复,以免永久封禁。
您需要登录后才可以回帖 登录 | 加入论坛

本版积分规则

免责声明:本站所有资源均收集自互联网,没有提供影片资源存储,也未参与录制、上传。若本站收录的资源涉及您的版权或知识产权或其他利益,请附上版权证明邮件告知,在收到邮件后24小时内删除。

Copyright © 2012 [盘乐网] 管理员邮箱:admin#pan6.com(#=@)

站长信箱|sitemap|手机版|小黑屋|百度统计|盘乐网 ( 粤ICP备18120611号 )

快速回复 返回顶部 返回列表