盘乐网

 找回密码
 加入论坛
提示:多个关键词中间加空格 例如:天龙八部 星河
楼主: 至尊宝c

[BD-1080P] [中国香港][1992][92黑玫瑰对黑玫瑰][梁家辉/邵美琪/毛舜筠][喜剧][国粤语简繁软中字][1080P][MKV/3.87G][港版蓝光修复无水印][至尊宝] 含百度网盘 含115网盘

  [复制链接]

主题
3188
活跃值
21649
热心值
2627
盘币
363288
注册时间
2018-4-7
最后登录
2022-1-26
在线时间
1797 小时

长期在线阳光心情老会员勋章鼎力支持我是土豪优秀会员普通精华热心人士爱心满满灌水之王荣誉会员资源组成员动漫达人夜猫子

发表于 2021-1-13 11:29:44 | 显示全部楼层 |阅读模式
请尊重分享者,本资源仅限交流未经楼主同意严禁转载或盈利,违者封号处理!
283686_front_gaitubao_455x576.jpg
◎译  名 92黑玫瑰对黑玫瑰 / 黑蔷薇对黑蔷薇 / 92 Legendary La Rose Noire
◎片  名 92黑玫瑰對黑玫瑰
◎年  代 1992
◎产  地 中国香港
◎类  别 喜剧 / 动作 / 爱情 / 歌舞
◎语  言 汉语普通话/粤语
◎上映日期 1992-07-02
◎IMDb评星  ★★★★★★✦☆☆☆
◎IMDb评分  6.7/10 from 366 users
◎IMDb链接  https://www.imdb.com/title/tt0103602/
◎豆瓣评星 ★★★✦☆
◎豆瓣评分 7.4/10 from 20,750 users
◎豆瓣链接 https://movie.douban.com/subject/1299135/
◎片  长 95分钟
◎导  演 刘镇伟 / Jeffrey Lau
◎演  员 梁家辉 / Tony Leung
      邵美琪 / Maggie Siu
      毛舜筠 / Teresa Mo
      黄韵诗 / Wan-Si Wong
      冯宝宝 / Bo-Bo Fung
      伍国健 / Kwok-kin Ng
      孙名翠 / Karen Suen | 饰 Apple
      陈远佳 / Yuen Kai Chan
      司马华龙 / Wah Lung Szema
      叶进 / Chun Yip
      叶荣祖 / Wing-Cho Yip
      林祖辉 / Thomas Lam
      刘国昌 / Lawrence Ah Mon
      邓泰和 / Tai Wo Tang
◎编  剧 刘镇伟 / Jeffrey Lau
◎制  片  人 浮乐莲 / Laura Fu
◎音  乐 卢冠廷 / Lowell Lo
◎摄  影 陈远佳 / Yuen Kai Chan
◎剪  辑 奚杰伟 / Kit-Wai Kai
◎美  术 陈善之 / Joseph Chan Sin-Ji
◎化  妆 李权 / Lee Kuen
◎其  它 林立三 / Lap-San Lam
      何添 / Tim Ho
      周锦祥 / Gam Cheung Chow

◎标  签 香港 | 喜剧 | 梁家辉 | 刘镇伟 | 香港电影 | 毛舜筠 | 邵美琪 | 1992

◎简  介 

  黄蝴蝶(邵美琪 饰)是一个失意的编剧,几经波折,已经堕落到向闺蜜阿娟(毛舜筠 饰)探讨三级片的程度。胡蝶的邻居警官吕奇(梁家辉 饰)对她颇有好感,后者在英雄救美后意外得到了她家的钥匙,然而他的不请自来,却落得狼狈而逃。因为事业接连遭受重创,胡蝶决定在江边横刀自尽,然而怯懦 的她终于没有自裁,反而盲打误撞惊扰了一对偷情的鸳鸯。后者仓皇逃窜,却遗留了一些私人财物。为了物归原主,胡蝶和阿娟一同登门,却无意中卷入了一场黑吃黑的血案。侥幸逃生的胡蝶临走前,还多事地留下了黑玫瑰的字条,而阿娟却因为留下了手印而被警方对号入座。结果,黑玫瑰成为了全城热议的话题,而这也引起了黑玫瑰掌门人(冯宝宝 饰)与师姐(黄韵诗 饰)的注意,于是一场剪不断理还乱的情场争夺战开始上演了……

◎获奖情况 

  第12届香港电影金像奖 (1993)
  最佳电影(提名) 浮乐莲
  最佳导演(提名) 刘镇伟
  最佳编剧(提名) 刘镇伟
  最佳男主角 梁家辉
  最佳女配角 冯宝宝
  最佳女配角(提名) 毛舜筠,黄韵诗
  最佳服装造型设计(提名) Joseph Chan
  最佳原创电影音乐(提名) 卢冠廷

◎幕后揭秘

  彻头彻尾的港产cult电影,以香港电影早期的粤语长片为戏仿解构对象,营造出强烈的颠覆感和怀旧氛围。此片挖掘出了梁家辉的喜剧细胞,真正的冷面笑匠,配上奶声奶气的声音,让人捧腹。作品里男女对唱《旧欢如梦》等几首老歌皆是经典场面。但此片始于戏仿止于解构,搞笑之外也没留下什么东西。导演刘镇伟最动人的地方是脱下嬉皮面具后露出的严肃温情的面容,而此片在面具之后还是面具,或者说就是由表及里的一脸滑稽。


◎截    图
92黑玫瑰对黑玫瑰.1992.BDRip.92 Legendary La Rose Noire.HKG.2Audio.@至尊宝.mkv_20.jpg 92黑玫瑰对黑玫瑰.1992.BDRip.92 Legendary La Rose Noire.HKG.2Audio.@至尊宝.mkv_20.jpg 92黑玫瑰对黑玫瑰.1992.BDRip.92 Legendary La Rose Noire.HKG.2Audio.@至尊宝.mkv_20.jpg 92黑玫瑰对黑玫瑰.1992.BDRip.92 Legendary La Rose Noire.HKG.2Audio.@至尊宝.mkv_20.jpg

92黑玫瑰对黑玫瑰.1992.BDRip.92 Legendary La Rose Noire.HKG.2Audio.@至尊宝.mkv.jp.jpg

  1. Video
  2. ID                             : 1
  3. Format                         : HEVC
  4. Format/Info                    : High Efficiency Video Coding
  5. Format profile                 : Main 10@L4@Main
  6. Codec ID                       : V_MPEGH/ISO/HEVC
  7. Duration                       : 1 h 34 min
  8. Bit rate                       : 4 794 kb/s
  9. Width                          : 1 920 pixels
  10. Height                         : 1 080 pixels
  11. Display aspect ratio           : 16:9
  12. Frame rate mode                : Constant
  13. Frame rate                     : 24.000 FPS
  14. Color space                    : YUV
  15. Chroma subsampling             : 4:2:0
  16. Bit depth                      : 10 bits
  17. Bits/(Pixel*Frame)             : 0.096
  18. Stream size                    : 3.18 GiB (82%)
  19. Title                          : @至尊宝
  20. Writing library                : x265 3.4+12-geff904199:[Windows][GCC 5.4.0][64 bit] 10bit
  21. Encoding settings              : cpuid=1111039 / frame-threads=3 / numa-pools=8 / wpp / no-pmode / no-pme / no-psnr / no-ssim / log-level=2 / input-csp=1 / input-res=1920x1080 / interlace=0 / total-frames=0 / level-idc=0 / high-tier=1 / uhd-bd=0 / ref=1 / no-allow-non-conformance / no-repeat-headers / annexb / no-aud / no-hrd / info / hash=0 / no-temporal-layers / open-gop / min-keyint=24 / keyint=240 / gop-lookahead=0 / bframes=3 / b-adapt=0 / b-pyramid / bframe-bias=0 / rc-lookahead=5 / lookahead-slices=6 / scenecut=0 / hist-scenecut=0 / radl=0 / no-splice / no-intra-refresh / ctu=32 / min-cu-size=16 / no-rect / no-amp / max-tu-size=32 / tu-inter-depth=1 / tu-intra-depth=1 / limit-tu=0 / rdoq-level=0 / dynamic-rd=0.00 / no-ssim-rd / no-signhide / no-tskip / nr-intra=0 / nr-inter=0 / no-constrained-intra / strong-intra-smoothing / max-merge=2 / limit-refs=0 / no-limit-modes / me=0 / subme=0 / merange=57 / temporal-mvp / no-frame-dup / no-hme / no-weightp / no-weightb / no-analyze-src-pics / deblock=0:0 / no-sao / no-sao-non-deblock / rd=2 / selective-sao=0 / early-skip / rskip / fast-intra / no-tskip-fast / no-cu-lossless / no-b-intra / no-splitrd-skip / rdpenalty=0 / psy-rd=0.00 / psy-rdoq=0.00 / no-rd-refine / no-lossless / cbqpoffs=0 / crqpoffs=0 / rc=crf / crf=16.0 / qcomp=0.60 / qpstep=4 / stats-write=0 / stats-read=0 / ipratio=1.40 / pbratio=1.30 / aq-mode=2 / aq-strength=0.00 / cutree / zone-count=0 / no-strict-cbr / qg-size=32 / no-rc-grain / qpmax=69 / qpmin=0 / no-const-vbv / sar=1 / overscan=0 / videoformat=5 / range=0 / colorprim=2 / transfer=2 / colormatrix=2 / chromaloc=0 / display-window=0 / cll=0,0 / min-luma=0 / max-luma=1023 / log2-max-poc-lsb=8 / vui-timing-info / vui-hrd-info / slices=1 / no-opt-qp-pps / no-opt-ref-list-length-pps / no-multi-pass-opt-rps / scenecut-bias=0.05 / hist-threshold=0.03 / no-opt-cu-delta-qp / no-aq-motion / no-hdr10 / no-hdr10-opt / no-dhdr10-opt / no-idr-recovery-sei / analysis-reuse-level=0 / analysis-save-reuse-level=0 / analysis-load-reuse-level=0 / scale-factor=0 / refine-intra=0 / refine-inter=0 / refine-mv=1 / refine-ctu-distortion=0 / no-limit-sao / ctu-info=0 / no-lowpass-dct / refine-analysis-type=0 / copy-pic=1 / max-ausize-factor=1.0 / no-dynamic-refine / no-single-sei / no-hevc-aq / no-svt / no-field / qp-adaptation-range=1.00 / no-scenecut-aware-qpconformance-window-offsets / right=0 / bottom=0 / decoder-max-rate=0
  22. Language                       : Chinese
  23. Default                        : Yes
  24. Forced                         : No
  25. Color range                    : Limited

  26. Audio #1
  27. ID                             : 2
  28. ID in the original source medi : 4353 (0x1101)
  29. Format                         : AC-3
  30. Format/Info                    : Audio Coding 3
  31. Commercial name                : Dolby Digital
  32. Codec ID                       : A_AC3
  33. Duration                       : 1 h 34 min
  34. Bit rate mode                  : Constant
  35. Bit rate                       : 384 kb/s
  36. Channel(s)                     : 2 channels
  37. Channel layout                 : L R
  38. Sampling rate                  : 48.0 kHz
  39. Frame rate                     : 31.250 FPS (1536 SPF)
  40. Compression mode               : Lossy
  41. Stream size                    : 261 MiB (7%)
  42. Title                          : 国语
  43. Language                       : Chinese
  44. Service kind                   : Complete Main
  45. Default                        : Yes
  46. Forced                         : No
  47. Original source medium         : Blu-ray

  48. Audio #2
  49. ID                             : 3
  50. ID in the original source medi : 4352 (0x1100)
  51. Format                         : AC-3
  52. Format/Info                    : Audio Coding 3
  53. Commercial name                : Dolby Digital
  54. Format settings                : Dolby Surround EX
  55. Codec ID                       : A_AC3
  56. Duration                       : 1 h 34 min
  57. Bit rate mode                  : Constant
  58. Bit rate                       : 640 kb/s
  59. Channel(s)                     : 6 channels
  60. Channel layout                 : L R C LFE Ls Rs
  61. Sampling rate                  : 48.0 kHz
  62. Frame rate                     : 31.250 FPS (1536 SPF)
  63. Compression mode               : Lossy
  64. Stream size                    : 434 MiB (11%)
  65. Title                          : 粤语
  66. Language                       : Chinese
  67. Service kind                   : Complete Main
  68. Default                        : No
  69. Forced                         : No
  70. Original source medium         : Blu-ray

  71. Text #1
  72. ID                             : 4
  73. Format                         : ASS
  74. Codec ID                       : S_TEXT/ASS
  75. Codec ID/Info                  : Advanced Sub Station Alpha
  76. Duration                       : 1 h 31 min
  77. Bit rate                       : 141 b/s
  78. Count of elements              : 1287
  79. Compression mode               : Lossless
  80. Stream size                    : 94.7 KiB (0%)
  81. Title                          : 国语简体
  82. Language                       : Chinese
  83. Default                        : Yes
  84. Forced                         : No

  85. Text #2
  86. ID                             : 5
  87. Format                         : ASS
  88. Codec ID                       : S_TEXT/ASS
  89. Codec ID/Info                  : Advanced Sub Station Alpha
  90. Duration                       : 1 h 31 min
  91. Bit rate                       : 141 b/s
  92. Count of elements              : 1287
  93. Compression mode               : Lossless
  94. Stream size                    : 94.7 KiB (0%)
  95. Title                          : 国语繁体
  96. Language                       : Chinese
  97. Default                        : No
  98. Forced                         : No

  99. Text #3
  100. ID                             : 6
  101. Format                         : ASS
  102. Codec ID                       : S_TEXT/ASS
  103. Codec ID/Info                  : Advanced Sub Station Alpha
  104. Duration                       : 1 h 31 min
  105. Bit rate                       : 149 b/s
  106. Count of elements              : 1382
  107. Compression mode               : Lossless
  108. Stream size                    : 100 KiB (0%)
  109. Title                          : 粤语简体
  110. Language                       : Chinese
  111. Default                        : No
  112. Forced                         : No

  113. Text #4
  114. ID                             : 7
  115. Format                         : ASS
  116. Codec ID                       : S_TEXT/ASS
  117. Codec ID/Info                  : Advanced Sub Station Alpha
  118. Duration                       : 1 h 31 min
  119. Bit rate                       : 149 b/s
  120. Count of elements              : 1382
  121. Compression mode               : Lossless
  122. Stream size                    : 100 KiB (0%)
  123. Title                          : 粤语繁体
  124. Language                       : Chinese
  125. Default                        : No
  126. Forced                         : No

  127. Menu
  128. 00:00:00.000                   : en:第 01 章
  129. 00:08:16.083                   : en:第 02 章
  130. 00:17:43.208                   : en:第 03 章
  131. 00:24:40.750                   : en:第 04 章
  132. 00:34:17.416                   : en:第 05 章
  133. 00:48:32.416                   : en:第 06 章
  134. 00:55:16.833                   : en:第 07 章
  135. 01:01:14.791                   : en:第 08 章
  136. 01:09:57.750                   : en:第 09 章
  137. 01:19:16.250                   : en:第 10 章
  138. 01:25:05.208                   : en:第 11 章
  139. 01:30:58.166                   : en:第 12 章

复制代码


2021年11月27日更新HEVC 10Bit 版本




点击进入百度网盘下载(←购买前请先验证分享链接是否有效)



此处内容付费可见

此处内容需要向楼主支付盘币或购买VIP才能显示 已有 129 人购买 

支付 5 盘币 升级VIP


该资源其他网盘分享渠道→点此了解功能详情

使用115网盘下载(来自 至尊宝c 的分享,下载需要单独支付 5 盘币)

免责申明 - 论坛版权1、本站所有资源均来自会员分享或网络收集整理,仅供会员交流学习,禁用商业用途或盈利,下载后请在24小时之内删除;
2、本站(www.pan6.com)支持正版,本资源版权归版权方所有,观看或阅读请到相应机构购买正版资源;
3、本站资源均来源于网络,本站不参与录制、上传,如本帖侵犯到任何版权问题,请立即告知本站(admin#pan6.com(#=@)),本站将及时予与删除并致以最深的歉意;

点赞

参与人数 4热心值 +4

给力资源,感谢分享! + 1

给力资源,感谢分享! + 1

谢谢@Thanks! + 1

资源给力! + 1

查看点赞详情

楼主热贴推荐
华语影视爱好者
BT资源无法下载:戳这里,不会发帖、金币相关等新手问题:戳这里
回复

拉黑 使用道具 举报

为保留有用回复信息,此处有 129 个购买者的感谢留言已隐藏

主题
905
活跃值
6440
热心值
160
盘币
3266
注册时间
2016-12-13
最后登录
2022-1-26
在线时间
403 小时

长期在线阳光心情老会员勋章鼎力支持荣誉会员普通精华热心人士优秀会员灌水之王动漫达人

发表于 2021-1-13 11:57:42 | 显示全部楼层

好资源!!支持
回复

拉黑 使用道具 举报

主题
1
活跃值
2893
热心值
3
盘币
612
注册时间
2018-1-11
最后登录
2022-1-26
在线时间
27 小时
发表于 2021-1-14 08:16:05 | 显示全部楼层
感谢分享了,,,,,,,,,,,,
回复

拉黑 使用道具 举报

严禁灌水、讽刺、挖苦、辱骂分享者行为。回复前请详读:点击进入 理性回复,以免永久封禁。
您需要登录后才可以回帖 登录 | 加入论坛

本版积分规则

免责声明:本站所有资源均收集自互联网,没有提供影片资源存储,也未参与录制、上传。若本站收录的资源涉及您的版权或知识产权或其他利益,请附上版权证明邮件告知,在收到邮件后24小时内删除。

Copyright © 2012 [盘乐网] 管理员邮箱:admin#pan6.com(#=@)

站长信箱|sitemap|手机版|小黑屋|百度统计|盘乐网 ( 粤ICP备18120611号 )

快速回复 返回顶部 返回列表