盘乐网

 找回密码
 加入论坛
提示:多个关键词中间加空格 例如:天龙八部 星河
查看: 1236|回复: 122

[BD-1080P] [中国内地][1991][大红灯笼高高挂][巩俐/何赛飞/马精武][剧情][国法语简繁软中字][1080P][MKV/5.13G][法版蓝光修复无水印][至尊宝] 含百度网盘 含115网盘

  [复制链接]

主题
2932
活跃值
20619
热心值
2397
盘币
432194
注册时间
2018-4-7
最后登录
2021-12-1
在线时间
1688 小时

长期在线阳光心情老会员勋章鼎力支持我是土豪优秀会员普通精华热心人士爱心满满灌水之王荣誉会员资源组成员动漫达人夜猫子

发表于 2021-1-28 10:11:47 | 显示全部楼层 |阅读模式
请尊重分享者,本资源仅限交流未经楼主同意严禁转载或盈利,违者封号处理!
p1253031259_gaitubao_455x667.jpg
◎译  名 Raise The Red Lantern / Épouses et concubines
◎片  名 大红灯笼高高挂
◎年  代 1991
◎产  地 中国内地 / 中国香港 / 中国台湾
◎类  别 剧情
◎语  言 汉语普通话/法语
◎上映日期 1991-09-10(威尼斯电影节/多伦多电影节)
◎IMDb评分  8.1/10 from 28199 users
◎IMDb链接  https://www.imdb.com/title/tt0101640
◎豆瓣评分 8.5/10 from 162885 users
◎豆瓣链接 https://movie.douban.com/subject/1293323/
◎片  长 125 分钟
◎导  演 张艺谋 Yimou Zhang
◎编  剧 倪震 Zhen Ni / 苏童 Tong  Su
◎主  演 巩俐 Li Gong
       马精武 Jingwu Ma
       何赛飞 Saifei He
       曹翠芬 Cuifen Cao
       周琦 Qi Zhou
       孔琳 Lin Kong
       金淑媛 Shuyuan Jin
       丁惟敏 Weimin Ding
       初晓 Chu Xiao


◎标  签 剧情 | 女性 | 人性 | 经典 | 中国内地 | 伦理 | 文艺 | 1991

◎简  介  

  大学刚读半年的颂莲(巩俐)被贪钱的母亲逼迫着嫁进陈家大院,成了老爷的第四房姨太。陈府有老规矩,姨太太们傍晚时分要站在自已的屋子前,等待下人送来的意味被老爷“临幸”的大红灯笼。
  起初因为“新人”身份,颂莲得到老爷最多宠幸,但也因此被其它三位姨太太尤其笑里藏刀的二姨太(曹翠芬)挤兑得叫苦不迭。因为涉世不深,生性反叛好强的颂莲急欲争一口气,使计又成老爷身边红人,不想计被看穿,终败于二姨太手下酿成悲剧。而三姨太(何赛飞)的经历虽与颂莲迥异,却也殊途同归逃不出宿命。

◎获奖情况  

  第64届奥斯卡金像奖(1992)
  最佳外语片(提名)

  第48届威尼斯电影节(1991)
  主竞赛单元 金狮奖 (提名) 张艺谋
  银狮奖 最佳影片 张艺谋
  费比西奖(国际影评人联盟奖) 竞赛单元费比西奖 张艺谋

  第46届英国电影学院奖(1993)
  电影奖 最佳非英语片 邱复生 / 张艺谋

  第16届大众电影百花奖(1993)
  最佳故事片
  最佳女演员 巩俐


◎截    图
大红灯笼高高挂.1991.BDRip.Raise The Red Lantern.FRA.2Audio.@至尊宝.mkv_20210825_.jpg 大红灯笼高高挂.1991.BDRip.Raise The Red Lantern.FRA.2Audio.@至尊宝.mkv_20210825_.jpg 大红灯笼高高挂.1991.BDRip.Raise The Red Lantern.FRA.2Audio.@至尊宝.mkv_20210825_.jpg 大红灯笼高高挂.1991.BDRip.Raise The Red Lantern.FRA.2Audio.@至尊宝.mkv_20210825_.jpg

大红灯笼高高挂.1991.BDRip.Raise The Red Lantern.FRA.2Audio.@至尊宝.mkv.jpg
  1. Video
  2. ID                             : 1
  3. Format                         : HEVC
  4. Format/Info                    : High Efficiency Video Coding
  5. Format profile                 : Main 10@L5@Main
  6. Codec ID                       : V_MPEGH/ISO/HEVC
  7. Duration                       : 2 h 4 min
  8. Bit rate                       : 5 112 kb/s
  9. Width                          : 1 920 pixels
  10. Height                         : 1 032 pixels
  11. Display aspect ratio           : 1.85:1
  12. Frame rate mode                : Constant
  13. Frame rate                     : 24.000 FPS
  14. Color space                    : YUV
  15. Chroma subsampling             : 4:2:0
  16. Bit depth                      : 10 bits
  17. Bits/(Pixel*Frame)             : 0.107
  18. Stream size                    : 4.45 GiB (87%)
  19. Title                          : @至尊宝
  20. Writing library                : x265 3.4+1-g07e3381df+31:[Windows][GCC 10.1.0][64 bit] Yuuki 10bit+8bit+12bit
  21. Encoding settings              : rc=crf / crf=20.0000 / qcomp=0.65 / qpstep=4 / stats-write=0 / stats-read=0 / no-lossless / no-cu-lossless / aq-mode=3 / aq-strength=0.70 / cbqpoffs=0 / crqpoffs=0 / ipratio=1.40 / pbratio=1.30 / psy-rd=2.00 / psy-rdoq=0.00 / deblock=0:0 / ref=6 / limit-refs=1 / no-limit-modes / bframes=8 / b-adapt=2 / bframe-bias=0 / b-pyramid / b-intra / weightp / weightb / min-keyint=24 / max-keyint=240 / rc-lookahead=24 / gop-lookahead=0 / scenecut=40 / hist-scenecut=0 / radl=0 / max-cu-size=64 / min-cu-size=8 / me=3 / subme=7 / merange=48 / rdoq-level=0 / rd=4 / rdpenalty=0 / dynamic-rd=0.00 / no-rd-refine / ----- / cutree / sao / no-rect / no-amp / no-open-gop / wpp / no-pmode / pme / no-psnr / no-ssim / nr-intra=0 / nr-inter=0 / no-constrained-intra / no-strong-intra-smoothing / max-tu-size=32 / tu-inter-depth=1 / tu-intra-depth=1 / limit-tu=0 / qg-size=32 / qpmax=69 / qpmin=0 / ----- / cpuid=1111039 / frame-threads=4 / numa-pools=+ / log-level=2 / input-csp=1 / input-res=1920x1032 / interlace=0 / level-idc=0 / high-tier=1 / uhd-bd=0 / no-allow-non-conformance / repeat-headers / aud / no-hrd / info / hash=0 / no-temporal-layers / lookahead-slices=0 / no-splice / no-intra-refresh / no-ssim-rd / signhide / no-tskip / max-merge=3 / temporal-mvp / no-frame-dup / no-hme / no-analyze-src-pics / no-sao-non-deblock / selective-sao=4 / early-skip / rskip / no-fast-intra / no-tskip-fast / no-splitrd-skip / zone-count=0 / no-strict-cbr / no-rc-grain / no-const-vbv / sar=0 / overscan=0 / videoformat=5 / range=0 / colorprim=2 / transfer=2 / colormatrix=2 / chromaloc=0 / display-window=0 / cll=0,0 / min-luma=0 / max-luma=1023 / log2-max-poc-lsb=8 / vui-timing-info / vui-hrd-info / slices=1 / no-opt-qp-pps / no-opt-ref-list-length-pps / no-multi-pass-opt-rps / scenecut-bias=0.05 / hist-threshold=0.01 / no-opt-cu-delta-qp / no-aq-motion / no-hdr10 / no-hdr10-opt / no-dhdr10-opt / no-idr-recovery-sei / analysis-reuse-level=0 / analysis-save-reuse-level=0 / analysis-load-reuse-level=0 / scale-factor=0 / refine-intra=0 / refine-inter=0 / refine-mv=1 / refine-ctu-distortion=0 / no-limit-sao / ctu-info=0 / no-lowpass-dct / refine-analysis-type=0 / copy-pic=1 / max-ausize-factor=1.0 / no-dynamic-refine / no-single-sei / no-hevc-aq / no-svt / no-field / qp-adaptation-range=1.00 / no-scenecut-aware-qpconformance-window-offsets / right=0 / bottom=0 / decoder-max-rate=0
  22. Language                       : Chinese
  23. Default                        : Yes
  24. Forced                         : No

  25. Audio #1
  26. ID                             : 2
  27. Format                         : AC-3
  28. Format/Info                    : Audio Coding 3
  29. Commercial name                : Dolby Digital
  30. Codec ID                       : A_AC3
  31. Duration                       : 2 h 4 min
  32. Bit rate mode                  : Constant
  33. Bit rate                       : 640 kb/s
  34. Channel(s)                     : 2 channels
  35. Channel layout                 : L R
  36. Sampling rate                  : 48.0 kHz
  37. Frame rate                     : 31.250 FPS (1536 SPF)
  38. Compression mode               : Lossy
  39. Stream size                    : 571 MiB (11%)
  40. Title                          : 国语
  41. Language                       : Chinese
  42. Service kind                   : Complete Main
  43. Default                        : Yes
  44. Forced                         : No

  45. Audio #2
  46. ID                             : 3
  47. Format                         : AC-3
  48. Format/Info                    : Audio Coding 3
  49. Commercial name                : Dolby Digital
  50. Codec ID                       : A_AC3
  51. Duration                       : 2 h 4 min
  52. Bit rate mode                  : Constant
  53. Bit rate                       : 128 kb/s
  54. Channel(s)                     : 2 channels
  55. Channel layout                 : L R
  56. Sampling rate                  : 44.1 kHz
  57. Frame rate                     : 28.711 FPS (1536 SPF)
  58. Compression mode               : Lossy
  59. Stream size                    : 114 MiB (2%)
  60. Title                          : 法语
  61. Language                       : French
  62. Service kind                   : Complete Main
  63. Default                        : No
  64. Forced                         : No

  65. Text #1
  66. ID                             : 4
  67. Format                         : ASS
  68. Codec ID                       : S_TEXT/ASS
  69. Codec ID/Info                  : Advanced Sub Station Alpha
  70. Duration                       : 1 h 59 min
  71. Bit rate                       : 76 b/s
  72. Count of elements              : 916
  73. Compression mode               : Lossless
  74. Stream size                    : 66.9 KiB (0%)
  75. Title                          : 简体中文
  76. Language                       : Chinese
  77. Default                        : Yes
  78. Forced                         : No

  79. Text #2
  80. ID                             : 5
  81. Format                         : ASS
  82. Codec ID                       : S_TEXT/ASS
  83. Codec ID/Info                  : Advanced Sub Station Alpha
  84. Duration                       : 1 h 59 min
  85. Bit rate                       : 76 b/s
  86. Count of elements              : 916
  87. Compression mode               : Lossless
  88. Stream size                    : 66.9 KiB (0%)
  89. Title                          : 繁体中文
  90. Language                       : Chinese
  91. Default                        : No
  92. Forced                         : No

  93. Menu
  94. 00:00:00.000                   : en:Chapter 01
  95. 00:10:53.333                   : en:Chapter 02
  96. 00:16:05.291                   : en:Chapter 03
  97. 00:22:49.208                   : en:Chapter 04
  98. 00:27:45.291                   : en:Chapter 05
  99. 00:35:41.041                   : en:Chapter 06
  100. 00:42:20.416                   : en:Chapter 07
  101. 00:48:34.291                   : en:Chapter 08
  102. 00:55:47.041                   : en:Chapter 09
  103. 01:06:20.041                   : en:Chapter 10
  104. 01:12:40.000                   : en:Chapter 11
  105. 01:20:55.500                   : en:Chapter 12
  106. 01:29:47.041                   : en:Chapter 13
  107. 01:37:13.000                   : en:Chapter 14
  108. 01:43:28.416                   : en:Chapter 15
  109. 01:49:59.875                   : en:Chapter 16
  110. 01:55:18.250                   : en:Chapter 17
  111. 02:01:53.125                   : en:Chapter 18

复制代码


2021年8月26日更新HEVC 10Bit版本

★张艺谋其他经典电影


[百度云+115][中国内地][1990][菊豆][李保田/巩俐/李纬][伦理][国语简繁软中字][1080P][MKV/9.31G][日版蓝光修复无水印]
[百度云+115][中国内地][1988][红高粱][姜文/巩俐/张艺谋][91分钟完整版][国语简繁软中字][1080P][MKV/8.76G][国版蓝光修复无水印][西安电影厂]
[百度云+115][中国内地][1992][秋菊打官司][巩俐/雷恪生/刘佩琦][剧情][国语简繁软中字][1080P][MKV/9.51G][日版蓝光修复无水印]
[百度云+115][中国内地][1994][活着][葛优/巩俐/姜武][剧情][国粤语简繁软中字][1080P][MKV/8.26G][日版蓝光修复无水印][至尊宝]
[百度云+115][中国内地][1995][摇啊摇,摇到外婆桥][巩俐][剧情][国粤语简繁软中字][1080P][MKV/8.18G][美版蓝光修复无水印][HKFACT潇湘子]
[百度云+115][中国内地][1999][我的父亲母亲][章子怡/孙红雷/郑昊/李滨][剧情][国语简繁软中字][1080P][MKV/5.28G][超清修复无水印][Netflix]
[百度云+115][中国内地][1999][一个都不能少][魏敏芝/张慧科/田正达][剧情][国语简繁软中字][1080P][MKV/6.44G][超清修复无水印][广西电影厂]

[百度云+115][中国内地][1997][有话好好说][姜文/李保田/瞿颖][国语简繁软中字][MKV/1.7G][无水印][广西电影厂]





点击进入百度网盘下载(←购买前请先验证分享链接是否有效)




此处内容付费可见

此处内容需要向楼主支付盘币或购买VIP才能显示 已有 114 人购买 

支付 3 盘币 升级VIP


该资源其他网盘分享渠道→点此了解功能详情

使用115网盘下载(来自 至尊宝c 的分享,下载需要单独支付 3 盘币)

免责申明 - 论坛版权1、本站所有资源均来自会员分享或网络收集整理,仅供会员交流学习,禁用商业用途或盈利,下载后请在24小时之内删除;
2、本站(www.pan6.com)支持正版,本资源版权归版权方所有,观看或阅读请到相应机构购买正版资源;
3、本站资源均来源于网络,本站不参与录制、上传,如本帖侵犯到任何版权问题,请立即告知本站(admin#pan6.com(#=@)),本站将及时予与删除并致以最深的歉意;
楼主热贴推荐
华语影视爱好者
BT资源无法下载:戳这里,不会发帖、金币相关等新手问题:戳这里
回复

拉黑 使用道具 举报

为保留有用回复信息,此处有 114 个购买者的感谢留言已隐藏

主题
0
活跃值
4992
热心值
0
盘币
61
注册时间
2016-5-1
最后登录
2021-12-1
在线时间
429 小时
发表于 2021-1-28 12:26:55 | 显示全部楼层
谢谢楼主分享
回复

拉黑 使用道具 举报

主题
66
活跃值
1297
热心值
129
盘币
441
注册时间
2020-4-4
最后登录
2021-12-1
在线时间
329 小时
发表于 2021-1-28 16:26:01 来自手机 | 显示全部楼层
失效了求补档
回复

拉黑 使用道具 举报

主题
2932
活跃值
20619
热心值
2397
盘币
432194
注册时间
2018-4-7
最后登录
2021-12-1
在线时间
1688 小时

长期在线阳光心情老会员勋章鼎力支持我是土豪优秀会员普通精华热心人士爱心满满灌水之王荣誉会员资源组成员动漫达人夜猫子

 楼主| 发表于 2021-1-28 17:49:34 | 显示全部楼层

已补链接
华语影视爱好者
回复

拉黑 使用道具 举报

主题
0
活跃值
1917
热心值
0
盘币
583
注册时间
2018-3-9
最后登录
2021-11-29
在线时间
16 小时
发表于 2021-1-29 01:08:22 | 显示全部楼层
这个是好作品 感谢了
回复

拉黑 使用道具 举报

主题
0
活跃值
13045
热心值
-2
盘币
4751
注册时间
2015-10-11
最后登录
2021-11-24
在线时间
368 小时
发表于 2021-1-29 04:50:44 | 显示全部楼层
感謝樓主分享.......
回复

拉黑 使用道具 举报

主题
0
活跃值
2002
热心值
0
盘币
700
注册时间
2018-6-6
最后登录
2021-12-1
在线时间
309 小时
发表于 2021-1-29 23:02:55 | 显示全部楼层
很好的张艺谋电影,资源不错!
回复

拉黑 使用道具 举报

主题
0
活跃值
571
热心值
0
盘币
283
注册时间
2018-11-29
最后登录
2021-12-1
在线时间
99 小时
发表于 2021-5-3 21:37:15 | 显示全部楼层
谢谢分享。
回复

拉黑 使用道具 举报

主题
0
活跃值
82
热心值
0
盘币
1
注册时间
2018-10-30
最后登录
2021-11-13
在线时间
17 小时
发表于 2021-8-18 17:25:08 | 显示全部楼层
经典影片 收藏了~!
回复

拉黑 使用道具 举报

严禁灌水、讽刺、挖苦、辱骂分享者行为。回复前请详读:点击进入 理性回复,以免永久封禁。
您需要登录后才可以回帖 登录 | 加入论坛

本版积分规则

免责声明:本站所有资源均收集自互联网,没有提供影片资源存储,也未参与录制、上传。若本站收录的资源涉及您的版权或知识产权或其他利益,请附上版权证明邮件告知,在收到邮件后24小时内删除。

Copyright © 2012 [盘乐网] 管理员邮箱:admin#pan6.com(#=@)

站长信箱|sitemap|手机版|小黑屋|百度统计|盘乐网 ( 粤ICP备18120611号 )

快速回复 返回顶部 返回列表