盘乐网

 找回密码
 加入论坛
提示:多个关键词中间加空格 例如:天龙八部 星河
查看: 698|回复: 62

[BD-1080P] [中国香港][1988][孔雀王子][元彪/三上博史/高雄][奇幻][国粤语简繁软中字][1080P][MKV/7.82G][港版蓝光修复无水印] 含百度网盘 含115网盘

  [复制链接]

主题
3186
活跃值
21641
热心值
2604
盘币
363708
注册时间
2018-4-7
最后登录
2022-1-21
在线时间
1797 小时

长期在线阳光心情老会员勋章鼎力支持我是土豪优秀会员普通精华热心人士爱心满满灌水之王荣誉会员资源组成员动漫达人夜猫子

发表于 2021-4-11 15:18:21 | 显示全部楼层 |阅读模式
请尊重分享者,本资源仅限交流未经楼主同意严禁转载或盈利,违者封号处理!
p2625363699_gaitubao_455x568.jpg
◎译  名 Peacock King / 孔雀王 / Peacock Prince / Legend of the Phoenix
◎片  名 孔雀王子
◎年  代 1988
◎产  地 中国香港 / 日本
◎类  别 动作 / 奇幻 / 冒险
◎语  言 汉语普通话 / 粤语
◎上映日期 1988-12-10(日本) / 1989-03-13(中国香港)
◎IMDb评星  ★★★★★★☆☆☆☆
◎IMDb评分  5.9/10 from 332 users
◎IMDb链接  https://www.imdb.com/title/tt0093367/
◎豆瓣评星 ★★★✦☆
◎豆瓣评分 6.5/10 from 2,787 users
◎豆瓣链接 https://movie.douban.com/subject/1307445/
◎片  长 86分钟
◎导  演 蓝乃才 / Ngai Kai Lam
      元彪 / Biao Yuen
◎演  员 元彪 / Biao Yuen
      三上博史 / Hiroshi Mikami
      安田成美 / Narumi Yasuda
      叶蕴仪 / Gloria Yip
      王小凤 / Pauline Wong
      绪形拳 / Ken Ogata
      高雄 / Eddy Ko
      刘家辉 / Chia Hui Liu
      左顿平 / Tonpei Hidari
      肯·博伊尔 / Ken Boyle
      惠英红 / Kara Wai Ying Hung
      郭追 / Philip Kwok
      竹田高利 / Takatoshi Takeda
      元彬 / Bun Yuen
◎编  剧 邓景生 / Edward Tang
      江香生 / Heung Sang Kong
      桥本以藏 / Izô Hashimoto
      荻野真 / Makoto Ogino
◎制  片  人 蔡澜 / Lam Chua
      何冠昌 / Leonard Ho
      邹文怀 / Raymond Chow
◎剪  辑 姜兴隆 / Hsing-lung Chiang
◎美  术 马磐超 / Eddie Ma
◎副  导  演 三池崇史 / Takashi Miike
◎现场特效 樋口真嗣 / Shinji Higuchi
◎动作特技 董玮 / Wai Tung
◎其  它 周少龙 / Shao Lung Chou
      朱客 / Ke Chu

◎标  签 香港 | 香港电影 | 元彪 | 魔幻 | 动作 | 1988 | 蓝乃才 | 孔雀王

◎简  介 

  很久很久以前,地狱王被打败封印与地底深处,如今,蠢蠢欲动的他企图打破封印,重返人间。慈空和尚(绪形拳 饰)和孤峰法师(高雄 饰)得知了这一消息,便派出了弟子孔雀(元彪 饰)与吉祥果(三上博史 饰)前去应对。
  在地狱使者阿修罗(叶蕴仪 饰)和罗我(王小凤 饰)打开的魔洞之中,孔雀和吉祥果同地狱王展开了激烈的战斗,交锋之中,阿修罗意外丧生,于是,孔雀带着阿修罗的遗体返回西藏,希望自己的师傅能够挽回她的性命。之后,孔雀意外得知他和吉祥果竟然是失散多年的兄弟,亦是世界上唯二能够打败地狱王的存在,背负着巨大的使命,孔雀和吉祥果踏上了征途。


◎截    图
孔雀王子.1988.BDRip.Peacock King.HKG.2Audio.@至尊宝.mkv_20211030_104029.376.jpg 孔雀王子.1988.BDRip.Peacock King.HKG.2Audio.@至尊宝.mkv_20211030_104018.176.jpg 孔雀王子.1988.BDRip.Peacock King.HKG.2Audio.@至尊宝.mkv_20211030_104050.603.jpg 孔雀王子.1988.BDRip.Peacock King.HKG.2Audio.@至尊宝.mkv_20211030_104037.555.jpg

孔雀王子.1988.BDRip.Peacock King.HKG.2Audio.@至尊宝.mkv.jpg

  1. Video
  2. ID                             : 1
  3. Format                         : HEVC
  4. Format/Info                    : High Efficiency Video Coding
  5. Format profile                 : Main 10@L5.1@High
  6. Codec ID                       : V_MPEGH/ISO/HEVC
  7. Duration                       : 1 h 24 min
  8. Bit rate                       : 12.0 Mb/s
  9. Width                          : 1 912 pixels
  10. Height                         : 1 016 pixels
  11. Display aspect ratio           : 1.882
  12. Frame rate mode                : Constant
  13. Frame rate                     : 23.976 (24000/1001) FPS
  14. Color space                    : YUV
  15. Chroma subsampling             : 4:2:0
  16. Bit depth                      : 10 bits
  17. Bits/(Pixel*Frame)             : 0.257
  18. Stream size                    : 7.05 GiB (90%)
  19. Writing library                : x265 3.0+2-ge71f790de+23:[Windows][GCC 8.2.1][64 bit] Yuuki 10bit
  20. Encoding settings              : rc=crf / crf=18.0000 / qcomp=0.60 / qpstep=4 / stats-write=0 / stats-read=0 / vbv-maxrate=160000 / vbv-bufsize=160000 / vbv-init=0.9 / crf-max=0.0 / crf-min=0.0 / no-lossless / no-cu-lossless / aq-mode=3 / aq-strength=0.80 / cbqpoffs=-2 / crqpoffs=-2 / ipratio=1.40 / pbratio=1.30 / psy-rd=0.90 / psy-rdoq=0.40 / deblock=-3:-3 / ref=4 / limit-refs=1 / limit-modes / bframes=12 / b-adapt=2 / bframe-bias=0 / b-pyramid / b-intra / weightp / weightb / min-keyint=23 / max-keyint=480 / rc-lookahead=40 / gop-lookahead=0 / scenecut=40 / radl=0 / max-cu-size=32 / min-cu-size=8 / me=3 / subme=7 / merange=24 / rdoq-level=1 / rd=4 / rdpenalty=0 / dynamic-rd=0.00 / no-rd-refine / ----- / no-cutree / no-sao / no-rect / no-amp / no-open-gop / wpp / no-pmode / no-pme / no-psnr / no-ssim / nr-intra=0 / nr-inter=0 / no-constrained-intra / strong-intra-smoothing / max-tu-size=32 / tu-inter-depth=3 / tu-intra-depth=3 / limit-tu=4 / qg-size=8 / qpmax=69 / qpmin=0 / ----- / cpuid=1111039 / frame-threads=5 / numa-pools=32 / log-level=2 / input-csp=1 / input-res=1912x1016 / interlace=0 / level-idc=51 / high-tier=1 / uhd-bd=0 / no-allow-non-conformance / no-repeat-headers / no-aud / no-hrd / info / hash=0 / no-temporal-layers / lookahead-slices=0 / no-splice / no-intra-refresh / no-ssim-rd / signhide / no-tskip / max-merge=3 / temporal-mvp / no-analyze-src-pics / no-sao-non-deblock / no-early-skip / rskip / no-fast-intra / no-tskip-fast / no-splitrd-skip / zone-count=0 / no-strict-cbr / no-rc-grain / no-const-vbv / sar=0 / overscan=0 / videoformat=5 / range=0 / colorprim=2 / transfer=2 / colormatrix=2 / chromaloc=0 / display-window=0 / max-cll=0,0 / min-luma=0 / max-luma=1023 / log2-max-poc-lsb=8 / vui-timing-info / vui-hrd-info / slices=1 / no-opt-qp-pps / no-opt-ref-list-length-pps / no-multi-pass-opt-rps / scenecut-bias=0.05 / no-opt-cu-delta-qp / no-aq-motion / no-hdr / no-hdr-opt / no-dhdr10-opt / no-idr-recovery-sei / analysis-reuse-level=5 / scale-factor=0 / refine-intra=0 / refine-inter=0 / refine-mv=0 / refine-ctu-distortion=0 / no-limit-sao / ctu-info=0 / no-lowpass-dct / refine-analysis-type=0 / copy-pic=1 / max-ausize-factor=1.0 / no-dynamic-refine / no-single-sei / no-hevc-aq / qp-adaptation-range=1.00
  21. Language                       : Chinese
  22. Default                        : Yes
  23. Forced                         : No

  24. Audio #1
  25. ID                             : 2
  26. Format                         : AC-3
  27. Format/Info                    : Audio Coding 3
  28. Commercial name                : Dolby Digital
  29. Codec ID                       : A_AC3
  30. Duration                       : 1 h 24 min
  31. Bit rate mode                  : Constant
  32. Bit rate                       : 640 kb/s
  33. Channel(s)                     : 6 channels
  34. Channel layout                 : L R C LFE Ls Rs
  35. Sampling rate                  : 48.0 kHz
  36. Frame rate                     : 31.250 FPS (1536 SPF)
  37. Compression mode               : Lossy
  38. Stream size                    : 387 MiB (5%)
  39. Title                          : 国语
  40. Language                       : Chinese
  41. Service kind                   : Complete Main
  42. Default                        : Yes
  43. Forced                         : No

  44. Audio #2
  45. ID                             : 3
  46. Format                         : AC-3
  47. Format/Info                    : Audio Coding 3
  48. Commercial name                : Dolby Digital
  49. Codec ID                       : A_AC3
  50. Duration                       : 1 h 24 min
  51. Bit rate mode                  : Constant
  52. Bit rate                       : 640 kb/s
  53. Channel(s)                     : 6 channels
  54. Channel layout                 : L R C LFE Ls Rs
  55. Sampling rate                  : 48.0 kHz
  56. Frame rate                     : 31.250 FPS (1536 SPF)
  57. Compression mode               : Lossy
  58. Stream size                    : 387 MiB (5%)
  59. Title                          : 粤语
  60. Language                       : Chinese
  61. Service kind                   : Complete Main
  62. Default                        : No
  63. Forced                         : No

  64. Text #1
  65. ID                             : 4
  66. Format                         : ASS
  67. Codec ID                       : S_TEXT/ASS
  68. Codec ID/Info                  : Advanced Sub Station Alpha
  69. Duration                       : 1 h 19 min
  70. Bit rate                       : 82 b/s
  71. Count of elements              : 624
  72. Compression mode               : Lossless
  73. Stream size                    : 47.8 KiB (0%)
  74. Title                          : 国语简体
  75. Language                       : Chinese
  76. Default                        : Yes
  77. Forced                         : No

  78. Text #2
  79. ID                             : 5
  80. Format                         : ASS
  81. Codec ID                       : S_TEXT/ASS
  82. Codec ID/Info                  : Advanced Sub Station Alpha
  83. Duration                       : 1 h 19 min
  84. Bit rate                       : 82 b/s
  85. Count of elements              : 624
  86. Compression mode               : Lossless
  87. Stream size                    : 47.8 KiB (0%)
  88. Title                          : 国语繁体
  89. Language                       : Chinese
  90. Default                        : No
  91. Forced                         : No

  92. Text #3
  93. ID                             : 6
  94. Format                         : ASS
  95. Codec ID                       : S_TEXT/ASS
  96. Codec ID/Info                  : Advanced Sub Station Alpha
  97. Duration                       : 1 h 19 min
  98. Bit rate                       : 81 b/s
  99. Count of elements              : 619
  100. Compression mode               : Lossless
  101. Stream size                    : 47.5 KiB (0%)
  102. Title                          : 粤语简体
  103. Language                       : Chinese
  104. Default                        : No
  105. Forced                         : No

  106. Text #4
  107. ID                             : 7
  108. Format                         : ASS
  109. Codec ID                       : S_TEXT/ASS
  110. Codec ID/Info                  : Advanced Sub Station Alpha
  111. Duration                       : 1 h 19 min
  112. Bit rate                       : 81 b/s
  113. Count of elements              : 619
  114. Compression mode               : Lossless
  115. Stream size                    : 47.5 KiB (0%)
  116. Title                          : 粤语繁体
  117. Language                       : Chinese
  118. Default                        : No
  119. Forced                         : No

  120. Menu
  121. 00:00:00.000                   : en:第 01 章
  122. 00:05:50.083                   : en:第 02 章
  123. 00:12:22.416                   : en:第 03 章
  124. 00:21:01.041                   : en:第 04 章
  125. 00:30:21.041                   : en:第 05 章
  126. 00:42:55.333                   : en:第 06 章
  127. 00:51:59.166                   : en:第 07 章
  128. 00:56:15.916                   : en:第 08 章
  129. 01:04:06.708                   : en:第 09 章
  130. 01:13:55.250                   : en:第 10 章
  131. 01:22:41.458                   : en:第 11 章
  132. 01:30:59.083                   : en:第 12 章

复制代码




点击进入百度网盘下载(←购买前请先验证分享链接是否有效)



此处内容付费可见

此处内容需要向楼主支付盘币或购买VIP才能显示 已有 61 人购买 

支付 3 盘币 升级VIP


该资源其他网盘分享渠道→点此了解功能详情

使用115网盘下载(来自 至尊宝c 的分享,下载需要单独支付 3 盘币)

免责申明 - 论坛版权1、本站所有资源均来自会员分享或网络收集整理,仅供会员交流学习,禁用商业用途或盈利,下载后请在24小时之内删除;
2、本站(www.pan6.com)支持正版,本资源版权归版权方所有,观看或阅读请到相应机构购买正版资源;
3、本站资源均来源于网络,本站不参与录制、上传,如本帖侵犯到任何版权问题,请立即告知本站(admin#pan6.com(#=@)),本站将及时予与删除并致以最深的歉意;

点赞

参与人数 1热心值 +1

楼主V5! + 1

查看点赞详情

楼主热贴推荐
华语影视爱好者
BT资源无法下载:戳这里,不会发帖、金币相关等新手问题:戳这里
回复

拉黑 使用道具 举报

为保留有用回复信息,此处有 61 个购买者的感谢留言已隐藏

主题
16
活跃值
4235
热心值
14
盘币
848
注册时间
2016-4-17
最后登录
2022-1-20
在线时间
551 小时
发表于 2021-4-11 19:48:03 | 显示全部楼层
超高清的 出来了
回复

拉黑 使用道具 举报

严禁灌水、讽刺、挖苦、辱骂分享者行为。回复前请详读:点击进入 理性回复,以免永久封禁。
您需要登录后才可以回帖 登录 | 加入论坛

本版积分规则

免责声明:本站所有资源均收集自互联网,没有提供影片资源存储,也未参与录制、上传。若本站收录的资源涉及您的版权或知识产权或其他利益,请附上版权证明邮件告知,在收到邮件后24小时内删除。

Copyright © 2012 [盘乐网] 管理员邮箱:admin#pan6.com(#=@)

站长信箱|sitemap|手机版|小黑屋|百度统计|盘乐网 ( 粤ICP备18120611号 )

快速回复 返回顶部 返回列表