盘乐网

 找回密码
 加入论坛
提示:多个关键词中间加空格 例如:天龙八部 星河
查看: 793|回复: 65

[BD-1080P] [中国香港][1980][师弟出马][成龙/元彪][完整版][国粤语简繁软中字][1080P][MKV/10.79G/14.84G][英版2K蓝光修复无水印][HKFACT潇湘子] 含百度网盘 含115网盘

  [复制链接]

主题
3186
活跃值
21641
热心值
2604
盘币
363691
注册时间
2018-4-7
最后登录
2022-1-21
在线时间
1797 小时

长期在线阳光心情老会员勋章鼎力支持我是土豪优秀会员普通精华热心人士爱心满满灌水之王荣誉会员资源组成员动漫达人夜猫子

发表于 2021-5-7 14:17:51 | 显示全部楼层 |阅读模式
请尊重分享者,本资源仅限交流未经楼主同意严禁转载或盈利,违者封号处理!
274768_slip_gaitubao_455x570.jpg
◎译  名 师弟出马 / The Young Master
◎片  名 師弟出馬
◎年  代 1980
◎产  地 中国香港
◎类  别 喜剧 / 动作
◎语  言 汉语普通话/粵語
◎上映日期 1980-02-09
◎IMDb评分  7.2/10 from 6597 users
◎IMDb链接  https://www.imdb.com/title/tt0081499
◎豆瓣评分 7.1/10 from 8616 users
◎豆瓣链接 https://movie.douban.com/subject/1294131/
◎片  长 101分钟
◎导  演 成龙 Jackie Chan
◎编  剧 成龙 Jackie Chan / 童路 Lu Tung / 刘天赐 Tin-Chi Lau
◎主  演 成龙 Jackie Chan
       元彪 Biao Yuen
       李海生 Hoi Sang Lee
       田丰 Feng Tien
       太保 Po Tai
       石坚 Kien Shih
       钟荣 Chung Wing
       彭润祥 Yun-chiang Peng
       黎恩 Lai Yan
       张志平 Chi Ping Chang
       岑潜波 Chien-Po Tsen
       冯雪瑞 Hsueh-Yui Feng
       冯克安 Hark-On Fung
       黎强权 Benny Lai Keung-Kuen
       李丽丽 Lily Li
       韦白 Pai Wei
       樊梅生 Mei Sheng Fan
       黄仁植 In-Sik Whang
       曾楚霖 Choh-Lam Tsang


◎标  签 成龙 | 动作 | 香港 | 喜剧 | 香港电影 | 元彪 | 1980 | 功夫片

◎简  介  

  正风武馆在当地颇有名气,因为当地一年一度的舞狮大会正风武馆已经连续七年夺冠。今年,舞狮大会举办方为了吸引眼球,设了难度极高的采青大赛。阿昆和阿龙(成龙 饰)是正风武馆的师兄弟,每年都是阿昆代表武馆初赛。不料今年出赛前几天练习时阿昆失足扭伤了,馆长无奈之下只能 派出阿龙出赛。阿龙由于首次参赛,而且今年难度非常大,最终败下阵来。虽然受到了其他师兄弟的取笑,但阿龙丝毫没有放在心上,反而,他在比赛中发现的一个秘密却成了他的心头大石。


◎截    图
師弟出馬(完整版).1980.6AC3.HKFACT.mkv_20210507_143652.129.jpg 師弟出馬(完整版).1980.6AC3.HKFACT.mkv_20210507_143708.734.jpg 師弟出馬(完整版).1980.6AC3.HKFACT.mkv_20210507_143716.801.jpg 師弟出馬(完整版).1980.6AC3.HKFACT.mkv_20210507_143742.739.jpg


師弟出馬(完整版).1980.6AC3.HKFACT.mkv.jpg


  1. Video
  2. ID                             : 1
  3. Format                         : AVC
  4. Format/Info                    : Advanced Video Codec
  5. Format profile                 : High@L4.1
  6. Format settings                : CABAC / 4 Ref Frames
  7. Format settings, CABAC         : Yes
  8. Format settings, Reference fra : 4 frames
  9. Codec ID                       : V_MPEG4/ISO/AVC
  10. Duration                       : 1 h 55 min
  11. Bit rate                       : 10 000 kb/s
  12. Width                          : 1 920 pixels
  13. Height                         : 800 pixels
  14. Display aspect ratio           : 2.40:1
  15. Frame rate mode                : Constant
  16. Frame rate                     : 23.976 (24000/1001) FPS
  17. Color space                    : YUV
  18. Chroma subsampling             : 4:2:0
  19. Bit depth                      : 8 bits
  20. Scan type                      : Progressive
  21. Bits/(Pixel*Frame)             : 0.272
  22. Stream size                    : 8.09 GiB (75%)
  23. Writing library                : x264 core 161 r3033 0d754ec
  24. Encoding settings              : cabac=1 / ref=4 / deblock=1:-3:-3 / analyse=0x3:0x113 / me=umh / subme=9 / psy=1 / psy_rd=1.00:1.00 / mixed_ref=1 / me_range=32 / chroma_me=1 / trellis=2 / 8x8dct=1 / cqm=0 / deadzone=21,11 / fast_pskip=1 / chroma_qp_offset=-10 / threads=9 / lookahead_threads=1 / sliced_threads=0 / nr=0 / decimate=1 / interlaced=0 / bluray_compat=0 / constrained_intra=0 / bframes=3 / b_pyramid=2 / b_adapt=2 / b_bias=0 / direct=3 / weightb=0 / open_gop=1 / weightp=2 / keyint=230 / keyint_min=22 / scenecut=40 / intra_refresh=0 / rc_lookahead=50 / rc=2pass / mbtree=1 / bitrate=10000 / ratetol=4.0 / qcomp=0.60 / qpmin=10 / qpmax=69 / qpstep=4 / cplxblur=20.0 / qblur=0.5 / vbv_maxrate=50000 / vbv_bufsize=50000 / nal_hrd=none / filler=0 / ip_ratio=1.40 / aq=1:1.00
  25. Language                       : Chinese
  26. Default                        : Yes
  27. Forced                         : No

  28. Audio #1
  29. ID                             : 2
  30. Format                         : AC-3
  31. Format/Info                    : Audio Coding 3
  32. Commercial name                : Dolby Digital
  33. Codec ID                       : A_AC3
  34. Duration                       : 1 h 55 min
  35. Bit rate mode                  : Constant
  36. Bit rate                       : 384 kb/s
  37. Channel(s)                     : 6 channels
  38. Channel layout                 : L R C LFE Ls Rs
  39. Sampling rate                  : 48.0 kHz
  40. Frame rate                     : 31.250 FPS (1536 SPF)
  41. Compression mode               : Lossy
  42. Stream size                    : 318 MiB (3%)
  43. Title                          : 國語(寰宇)
  44. Language                       : Chinese
  45. Service kind                   : Complete Main
  46. Default                        : Yes
  47. Forced                         : No

  48. Audio #2
  49. ID                             : 3
  50. Format                         : AC-3
  51. Format/Info                    : Audio Coding 3
  52. Commercial name                : Dolby Digital
  53. Codec ID                       : A_AC3
  54. Duration                       : 1 h 55 min
  55. Bit rate mode                  : Constant
  56. Bit rate                       : 640 kb/s
  57. Channel(s)                     : 6 channels
  58. Channel layout                 : L R C LFE Ls Rs
  59. Sampling rate                  : 48.0 kHz
  60. Frame rate                     : 31.250 FPS (1536 SPF)
  61. Compression mode               : Lossy
  62. Stream size                    : 530 MiB (5%)
  63. Title                          : 國語(藍光)
  64. Language                       : Chinese
  65. Service kind                   : Complete Main
  66. Default                        : No
  67. Forced                         : No

  68. Audio #3
  69. ID                             : 4
  70. Format                         : AC-3
  71. Format/Info                    : Audio Coding 3
  72. Commercial name                : Dolby Digital
  73. Codec ID                       : A_AC3
  74. Duration                       : 1 h 55 min
  75. Bit rate mode                  : Constant
  76. Bit rate                       : 640 kb/s
  77. Channel(s)                     : 2 channels
  78. Channel layout                 : L R
  79. Sampling rate                  : 48.0 kHz
  80. Frame rate                     : 31.250 FPS (1536 SPF)
  81. Compression mode               : Lossy
  82. Stream size                    : 530 MiB (5%)
  83. Title                          : 粵語(2.0)
  84. Language                       : Chinese
  85. Service kind                   : Complete Main
  86. Default                        : No
  87. Forced                         : No

  88. Audio #4
  89. ID                             : 5
  90. Format                         : AC-3
  91. Format/Info                    : Audio Coding 3
  92. Commercial name                : Dolby Digital
  93. Codec ID                       : A_AC3
  94. Duration                       : 1 h 55 min
  95. Bit rate mode                  : Constant
  96. Bit rate                       : 384 kb/s
  97. Channel(s)                     : 6 channels
  98. Channel layout                 : L R C LFE Ls Rs
  99. Sampling rate                  : 48.0 kHz
  100. Frame rate                     : 31.250 FPS (1536 SPF)
  101. Compression mode               : Lossy
  102. Stream size                    : 318 MiB (3%)
  103. Title                          : 粵語(寰宇5.1)
  104. Language                       : Chinese
  105. Service kind                   : Complete Main
  106. Default                        : No
  107. Forced                         : No

  108. Audio #5
  109. ID                             : 6
  110. Format                         : AC-3
  111. Format/Info                    : Audio Coding 3
  112. Commercial name                : Dolby Digital
  113. Codec ID                       : A_AC3
  114. Duration                       : 1 h 55 min
  115. Bit rate mode                  : Constant
  116. Bit rate                       : 640 kb/s
  117. Channel(s)                     : 6 channels
  118. Channel layout                 : L R C LFE Ls Rs
  119. Sampling rate                  : 48.0 kHz
  120. Frame rate                     : 31.250 FPS (1536 SPF)
  121. Compression mode               : Lossy
  122. Stream size                    : 530 MiB (5%)
  123. Title                          : 粵語(藍光5.1)
  124. Language                       : Chinese
  125. Service kind                   : Complete Main
  126. Default                        : No
  127. Forced                         : No

  128. Audio #6
  129. ID                             : 7
  130. Format                         : AC-3
  131. Format/Info                    : Audio Coding 3
  132. Commercial name                : Dolby Digital
  133. Codec ID                       : A_AC3
  134. Duration                       : 1 h 55 min
  135. Bit rate mode                  : Constant
  136. Bit rate                       : 640 kb/s
  137. Channel(s)                     : 2 channels
  138. Channel layout                 : L R
  139. Sampling rate                  : 48.0 kHz
  140. Frame rate                     : 31.250 FPS (1536 SPF)
  141. Compression mode               : Lossy
  142. Stream size                    : 530 MiB (5%)
  143. Title                          : 粵語(日版)
  144. Language                       : Chinese
  145. Service kind                   : Complete Main
  146. Default                        : No
  147. Forced                         : No

  148. Text #1
  149. ID                             : 8
  150. Format                         : UTF-8
  151. Codec ID                       : S_TEXT/UTF8
  152. Codec ID/Info                  : UTF-8 Plain Text
  153. Duration                       : 1 h 52 min
  154. Bit rate                       : 34 b/s
  155. Count of elements              : 1201
  156. Stream size                    : 28.7 KiB (0%)
  157. Title                          : 簡體中文
  158. Language                       : Chinese
  159. Default                        : Yes
  160. Forced                         : No

  161. Text #2
  162. ID                             : 9
  163. Format                         : UTF-8
  164. Codec ID                       : S_TEXT/UTF8
  165. Codec ID/Info                  : UTF-8 Plain Text
  166. Duration                       : 1 h 52 min
  167. Bit rate                       : 34 b/s
  168. Count of elements              : 1201
  169. Stream size                    : 28.7 KiB (0%)
  170. Title                          : 繁體中文
  171. Language                       : Chinese
  172. Default                        : No
  173. Forced                         : No

复制代码



◎资源链接:
点击进入百度网盘下载(←购买前请先验证分享链接是否有效)

此处内容付费可见

此处内容需要向楼主支付盘币或购买VIP才能显示 已有 61 人购买 

支付 3 盘币 升级VIP


该资源其他网盘分享渠道→点此了解功能详情

使用115网盘下载(来自 至尊宝c 的分享,下载需要单独支付 3 盘币)

免责申明 - 论坛版权1、本站所有资源均来自会员分享或网络收集整理,仅供会员交流学习,禁用商业用途或盈利,下载后请在24小时之内删除;
2、本站(www.pan6.com)支持正版,本资源版权归版权方所有,观看或阅读请到相应机构购买正版资源;
3、本站资源均来源于网络,本站不参与录制、上传,如本帖侵犯到任何版权问题,请立即告知本站(admin#pan6.com(#=@)),本站将及时予与删除并致以最深的歉意;
楼主热贴推荐
华语影视爱好者
BT资源无法下载:戳这里,不会发帖、金币相关等新手问题:戳这里
回复

拉黑 使用道具 举报

为保留有用回复信息,此处有 61 个购买者的感谢留言已隐藏

主题
35
活跃值
890
热心值
28
盘币
424
注册时间
2015-8-25
最后登录
2022-1-20
在线时间
196 小时
发表于 2021-5-7 16:24:40 | 显示全部楼层
看着不错,楼主资源太多,都洗不过来了
回复

拉黑 使用道具 举报

主题
0
活跃值
573
热心值
0
盘币
1749
注册时间
2018-11-29
最后登录
2022-1-20
在线时间
149 小时
发表于 2021-5-8 06:22:20 | 显示全部楼层
谢谢分享了
回复

拉黑 使用道具 举报

主题
2
活跃值
1807
热心值
2
盘币
2790
注册时间
2018-8-30
最后登录
2022-1-20
在线时间
205 小时
发表于 2021-5-9 15:59:33 | 显示全部楼层
这个以前楼主发过啊,英版蓝光,有什么区别吗
回复

拉黑 使用道具 举报

主题
3186
活跃值
21641
热心值
2604
盘币
363691
注册时间
2018-4-7
最后登录
2022-1-21
在线时间
1797 小时

长期在线阳光心情老会员勋章鼎力支持我是土豪优秀会员普通精华热心人士爱心满满灌水之王荣誉会员资源组成员动漫达人夜猫子

 楼主| 发表于 2021-5-9 16:03:43 | 显示全部楼层
lzjslt1 发表于 2021-5-9 15:59
这个以前楼主发过啊,英版蓝光,有什么区别吗

时长比较长一点,然后多个音轨
华语影视爱好者
回复

拉黑 使用道具 举报

严禁灌水、讽刺、挖苦、辱骂分享者行为。回复前请详读:点击进入 理性回复,以免永久封禁。
您需要登录后才可以回帖 登录 | 加入论坛

本版积分规则

免责声明:本站所有资源均收集自互联网,没有提供影片资源存储,也未参与录制、上传。若本站收录的资源涉及您的版权或知识产权或其他利益,请附上版权证明邮件告知,在收到邮件后24小时内删除。

Copyright © 2012 [盘乐网] 管理员邮箱:admin#pan6.com(#=@)

站长信箱|sitemap|手机版|小黑屋|百度统计|盘乐网 ( 粤ICP备18120611号 )

快速回复 返回顶部 返回列表