盘乐网

 找回密码
 加入论坛

QQ登录

只需一步,快速开始

提示:多个关键词中间加空格 例如:天龙八部 星河
查看: 288|回复: 40

[BD-1080P] [百度云+115][中国香港][1988][鸡同鸭讲][许冠文/许冠英/张艾嘉][喜剧][国粤语简繁软中字][1080P][MKV/8.83G][港版蓝光修复无水印] 含百度网盘 含百度网盘

[复制链接]

主题
2207
活跃值
10236
热心值
1701
盘币
256534
注册时间
2018-4-7
最后登录
2021-6-24
在线时间
1438 小时

长期在线阳光心情老会员勋章鼎力支持我是土豪优秀会员普通精华热心人士爱心满满灌水之王荣誉会员资源组成员动漫达人夜猫子

发表于 2021-5-11 15:45:27 | 显示全部楼层 |阅读模式
请尊重分享者,本资源仅限交流未经楼主同意严禁转载或盈利,违者封号处理!
p2245097677_gaitubao_455x538.jpg
◎译  名 鸡同鸭讲 / Chicken and Duck Talk
◎片  名 雞同鴨講
◎年  代 1988
◎产  地 中国香港
◎类  别 喜剧
◎语  言 粤语 / 汉语普通话
◎上映日期 1988-07-14
◎IMDb评分  7.3/10 from 682 users
◎IMDb链接  https://www.imdb.com/title/tt0095396
◎豆瓣评分 7.8/10 from 13005 users
◎豆瓣链接 https://movie.douban.com/subject/1300080/
◎片  长 98分钟
◎导  演 高志森 Clifton Ko
◎编  剧 高志森 Clifton Ko / 许冠文 Michael Koon Man Hui / 马伟豪 Joe Ma / 阮世生 James Yuen
◎主  演 许冠文 Michael Koon Man Hui
       许冠英 Ricky Hui
       张艾嘉 Sylvia Chang
       卢冠廷 Lowell Lo
       吴启华 Lawrence Ng
       谷峰 Feng Ku
       白茵 Yan Pak
       叶荣祖 Wing-Cho Yip
       何启南 Kai-Nam Ho
       许莹英 Ying-Ying Hui
       高志森 Clifton Ko
       罗冠兰 Koon-Lan Law
       叶蕴仪 Gloria Yip
       许冠杰 Samuel Hui
       徐小凤 Paula Tsui
       黎永强
       吴良 Leung Ng
       招石文 Shek-Man Chiu
       于仁泰 Ronny Yu
       何柏光 Pak-Kwong Ho


◎标  签 喜剧 | 香港 | 许冠文 | 香港电影 | 张艾嘉 | 1988 | 许冠英 | 高志森

◎简  介  

  许记烧鸭是香港街头尽人皆知的风味美食,虽然店铺寒酸,装潢陈旧,但是凭借老板老许(许冠文 饰)那一手出色的烧鸭技巧,依然引得众多食客前来大快朵颐。生意兴隆,不过老许对待下面的员工却甚为苛刻,无休止的加班、可怜的薪水,员工们怨声载道,反被老许巧言令色蒙骗过去。不过就在某一天,许记烧鸭的灾难来了。对门的店铺开了一家西式炸鸡店,老板丹尼(吴启华 饰)以先进的理念推广他的西式快餐,很快便将老许的客人抢了去。危机当头,老许想出各种办法应对,而丹尼也意欲将烧鸭店置于死地……本片荣获1989年美国拉斯维加斯国际喜剧最佳男主角奖大奖。

◎获奖情况  

  第8届香港电影金像奖(1989)
  最佳电影(提名) 于仁泰
  最佳男主角(提名) 许冠文


◎截    图
鸡同鸭讲.1988.BDRip.Chicken and Duck Talk.HKG.2AC3.mkv_20210511_141223.475.jpg 鸡同鸭讲.1988.BDRip.Chicken and Duck Talk.HKG.2AC3.mkv_20210511_141228.039.jpg 鸡同鸭讲.1988.BDRip.Chicken and Duck Talk.HKG.2AC3.mkv_20210511_141431.485.jpg 鸡同鸭讲.1988.BDRip.Chicken and Duck Talk.HKG.2AC3.mkv_20210511_141302.943.jpg

鸡同鸭讲.1988.BDRip.Chicken and Duck Talk.HKG.2AC3.mkv.jpg

  1. Video
  2. ID                             : 1
  3. Format                         : AVC
  4. Format/Info                    : Advanced Video Codec
  5. Format profile                 : High@L4.1
  6. Format settings                : CABAC / 4 Ref Frames
  7. Format settings, CABAC         : Yes
  8. Format settings, Reference fra : 4 frames
  9. Codec ID                       : V_MPEG4/ISO/AVC
  10. Duration                       : 1 h 38 min
  11. Bit rate                       : 11.5 Mb/s
  12. Width                          : 1 920 pixels
  13. Height                         : 1 080 pixels
  14. Display aspect ratio           : 16:9
  15. Frame rate mode                : Constant
  16. Frame rate                     : 24.000 FPS
  17. Color space                    : YUV
  18. Chroma subsampling             : 4:2:0
  19. Bit depth                      : 8 bits
  20. Scan type                      : Progressive
  21. Bits/(Pixel*Frame)             : 0.231
  22. Stream size                    : 7.93 GiB (90%)
  23. Title                          : 盘乐网@至尊宝
  24. Writing library                : x264 core 148 r2795M aaa9aa8
  25. Encoding settings              : cabac=1 / ref=4 / deblock=1:-2:-2 / analyse=0x3:0x113 / me=umh / subme=9 / psy=1 / psy_rd=1.00:0.15 / mixed_ref=1 / me_range=16 / chroma_me=1 / trellis=2 / 8x8dct=1 / cqm=0 / deadzone=21,11 / fast_pskip=1 / chroma_qp_offset=-3 / threads=24 / lookahead_threads=3 / sliced_threads=0 / nr=0 / decimate=1 / interlaced=0 / bluray_compat=0 / constrained_intra=0 / bframes=3 / b_pyramid=2 / b_adapt=1 / b_bias=0 / direct=3 / weightb=1 / open_gop=0 / weightp=2 / keyint=250 / keyint_min=25 / scenecut=40 / intra_refresh=0 / rc_lookahead=50 / rc=2pass / mbtree=1 / bitrate=11500 / ratetol=1.0 / qcomp=0.60 / qpmin=0 / qpmax=69 / qpstep=4 / cplxblur=20.0 / qblur=0.5 / vbv_maxrate=31250 / vbv_bufsize=31250 / nal_hrd=none / filler=0 / ip_ratio=1.40 / aq=1:1.00
  26. Language                       : Chinese
  27. Default                        : Yes
  28. Forced                         : No

  29. Audio #1
  30. ID                             : 2
  31. Format                         : AC-3
  32. Format/Info                    : Audio Coding 3
  33. Commercial name                : Dolby Digital
  34. Codec ID                       : A_AC3
  35. Duration                       : 1 h 38 min
  36. Bit rate mode                  : Constant
  37. Bit rate                       : 640 kb/s
  38. Channel(s)                     : 2 channels
  39. Channel layout                 : L R
  40. Sampling rate                  : 48.0 kHz
  41. Frame rate                     : 31.250 FPS (1536 SPF)
  42. Compression mode               : Lossy
  43. Stream size                    : 451 MiB (5%)
  44. Title                          : 国语
  45. Language                       : Chinese
  46. Service kind                   : Complete Main
  47. Default                        : Yes
  48. Forced                         : No

  49. Audio #2
  50. ID                             : 3
  51. Format                         : AC-3
  52. Format/Info                    : Audio Coding 3
  53. Commercial name                : Dolby Digital
  54. Codec ID                       : A_AC3
  55. Duration                       : 1 h 38 min
  56. Bit rate mode                  : Constant
  57. Bit rate                       : 640 kb/s
  58. Channel(s)                     : 2 channels
  59. Channel layout                 : L R
  60. Sampling rate                  : 48.0 kHz
  61. Frame rate                     : 31.250 FPS (1536 SPF)
  62. Compression mode               : Lossy
  63. Stream size                    : 452 MiB (5%)
  64. Title                          : 粤语
  65. Language                       : Chinese
  66. Service kind                   : Complete Main
  67. Default                        : No
  68. Forced                         : No

  69. Text #1
  70. ID                             : 4
  71. Format                         : UTF-8
  72. Codec ID                       : S_TEXT/UTF8
  73. Codec ID/Info                  : UTF-8 Plain Text
  74. Duration                       : 1 h 36 min
  75. Bit rate                       : 60 b/s
  76. Count of elements              : 1685
  77. Stream size                    : 42.6 KiB (0%)
  78. Title                          : 简体
  79. Language                       : Chinese
  80. Default                        : Yes
  81. Forced                         : No

  82. Text #2
  83. ID                             : 5
  84. Format                         : UTF-8
  85. Codec ID                       : S_TEXT/UTF8
  86. Codec ID/Info                  : UTF-8 Plain Text
  87. Duration                       : 1 h 36 min
  88. Bit rate                       : 60 b/s
  89. Count of elements              : 1685
  90. Stream size                    : 42.6 KiB (0%)
  91. Title                          : 繁体
  92. Language                       : Chinese
  93. Default                        : No
  94. Forced                         : No

  95. Text #3
  96. ID                             : 6
  97. Format                         : UTF-8
  98. Codec ID                       : S_TEXT/UTF8
  99. Codec ID/Info                  : UTF-8 Plain Text
  100. Duration                       : 1 h 36 min
  101. Bit rate                       : 132 b/s
  102. Count of elements              : 1685
  103. Stream size                    : 93.6 KiB (0%)
  104. Title                          : 腾祥嘉丽中圆简体
  105. Language                       : Chinese
  106. Default                        : No
  107. Forced                         : No

  108. Text #4
  109. ID                             : 7
  110. Format                         : UTF-8
  111. Codec ID                       : S_TEXT/UTF8
  112. Codec ID/Info                  : UTF-8 Plain Text
  113. Duration                       : 1 h 36 min
  114. Bit rate                       : 132 b/s
  115. Count of elements              : 1685
  116. Stream size                    : 93.6 KiB (0%)
  117. Title                          : 腾祥嘉丽中圆繁体
  118. Language                       : Chinese
  119. Default                        : No
  120. Forced                         : No

  121. Menu
  122. 00:00:00.000                   : en:Chapter 01
  123. 00:05:49.167                   : en:Chapter 02
  124. 00:13:05.875                   : en:Chapter 03
  125. 00:22:04.792                   : en:Chapter 04
  126. 00:29:55.167                   : en:Chapter 05
  127. 00:36:50.792                   : en:Chapter 06
  128. 00:44:26.500                   : en:Chapter 07
  129. 00:51:31.792                   : en:Chapter 08
  130. 01:00:15.167                   : en:Chapter 09
  131. 01:06:28.875                   : en:Chapter 10
  132. 01:15:58.875                   : en:Chapter 11
  133. 01:23:22.125                   : en:Chapter 12

复制代码



◎资源链接:
点击进入百度网盘下载(←购买前请先验证分享链接是否有效)


此处内容付费可见

此处内容需要向楼主支付盘币或购买VIP才能显示 已有 39 人购买 

支付 5 盘币 升级VIP


该资源其他网盘分享渠道→点此了解功能详情

使用115网盘下载(来自 至尊宝c 的分享,下载需要单独支付 5 盘币)

免责申明 - 论坛版权1、本站所有资源均来自会员分享或网络收集整理,仅供会员交流学习,禁用商业用途或盈利,下载后请在24小时之内删除;
2、本站(www.pan6.com)支持正版,本资源版权归版权方所有,观看或阅读请到相应机构购买正版资源;
3、本站资源均来源于网络,本站不参与录制、上传,如本帖侵犯到任何版权问题,请立即告知本站(admin#pan6.com(#=@)),本站将及时予与删除并致以最深的歉意;
楼主热贴推荐
禁止倒卖资源,资源有问题请私信
BT资源无法下载:戳这里,不会发帖、金币相关等新手问题:戳这里
回复

拉黑 使用道具 举报

为保留有用回复信息,此处有 39 个购买者的感谢留言已隐藏

主题
1
活跃值
290
热心值
0
盘币
4
注册时间
2017-10-7
最后登录
2021-6-23
在线时间
45 小时
发表于 2021-5-14 08:28:57 | 显示全部楼层
经典老片,值得收藏的
回复

拉黑 使用道具 举报

严禁灌水、讽刺、挖苦、辱骂分享者行为。回复前请详读:点击进入 理性回复,以免永久封禁。
您需要登录后才可以回帖 登录 | 加入论坛

本版积分规则

免责声明:本站所有资源均收集自互联网,没有提供影片资源存储,也未参与录制、上传。若本站收录的资源涉及您的版权或知识产权或其他利益,请附上版权证明邮件告知,在收到邮件后24小时内删除。

Copyright © 2012 [盘乐网] 管理员邮箱:admin#pan6.com(#=@)

站长信箱|sitemap|手机版|小黑屋|百度统计|盘乐网 ( 粤ICP备18120611号 )

快速回复 返回顶部 返回列表