盘乐网

 找回密码
 加入论坛

QQ登录

只需一步,快速开始

提示:多个关键词中间加空格 例如:天龙八部 星河
查看: 244|回复: 44

[BD-1080P] [百度云+115][中国香港][1997][97家有喜事][周星驰/黄百鸣/吴镇宇][喜剧][国粤语简繁软中字][1080P][MKV/8.28G][港版蓝光修复无水印] 含百度网盘 含百度网盘

[复制链接]

主题
2207
活跃值
10236
热心值
1701
盘币
256562
注册时间
2018-4-7
最后登录
2021-6-24
在线时间
1438 小时

长期在线阳光心情老会员勋章鼎力支持我是土豪优秀会员普通精华热心人士爱心满满灌水之王荣誉会员资源组成员动漫达人夜猫子

发表于 2021-5-11 15:49:33 | 显示全部楼层 |阅读模式
请尊重分享者,本资源仅限交流未经楼主同意严禁转载或盈利,违者封号处理!
p2598602091_gaitubao_455x588.jpg
◎译  名 97家有喜事 / All's Well, Ends Well 1997 / 喜事一家亲 / 都市恋情
◎片  名 97家有囍事
◎年  代 1997
◎产  地 中国香港
◎类  别 喜剧
◎语  言 汉语普通话/粤语
◎上映日期 1997-02-06(中国香港)
◎IMDb评分  6.2/10 from 879 users
◎IMDb链接  https://www.imdb.com/title/tt0118591
◎豆瓣评分 7.6/10 from 80323 users
◎豆瓣链接 https://movie.douban.com/subject/1305197/
◎片  长 90 分钟
◎导  演 张坚庭 Alfred Cheung
◎编  剧 黄百鸣 Raymond Wong / 谷德昭 Vincent Kok
◎主  演 周星驰 Stephen Chow
       黄百鸣 Raymond Wong
       吴镇宇 Francis Ng
       乔宏 Roy Chiao
       伍咏薇 Christine Ng
       黎姿 Gigi Lai
       吴倩莲 Chien-lien Wu
       钟丽缇 Christy Chung
       周华健 Emil Chau
       李蕙敏 Amanda Lee
       雷宇扬 Simon Lui
       罗冠兰 Koon-Lan Law
       杨宝玲 Pauline Yeung
       张国荣 Leslie Cheung
       泰迪·罗宾 Teddy Robin
       罗家英 Kar-Ying Law
       周文健 Michael Chow Man-Kin
       何超仪 Josie Ho
       彭丹 Diana Pang
       江希文 Liz Kong
       朱洁仪 Donna Chu Git-Yee
       鲍起静 Hee Ching Paw
       杨玉梅 Yuk-Mui Yeung
       黃志明 Chi-Ming Wong
       麦伟章 Wai Cheung Mak
       李纯恩 Benny Lee


◎标  签 周星驰 | 喜剧 | 香港 | 香港电影 | 搞笑 | 黄百鸣 | 1997 | 吴镇宇

◎简  介  

  老先生(乔宏 饰)有三个儿子。老大老良(黄百鸣 饰)整天忙于工作而忽略了老婆贤淑(伍咏薇 饰),贤淑每天在家中打点,却遭到老公误会她红杏出墙。次子老非利用读书逃避到投身社会,个性单纯,向往爱情却遭到伤害,之到后来认识了从北方来的小莲(吴倩莲 饰)。适逢老三老恭生日,平日老恭作恶多端,生性风流,两个哥哥以买彩票为名作为礼物送给老恭,其实那本来是一张过期的中奖彩票,他信以为真,因此欠下了巨债。祸不单行的他撞车脑震荡,变得疯疯癫癫……


◎截    图
97家有喜事.1997.BDRip.All's Well, Ends Well 1997.HKG.2AC3.mkv_20210511_1408.jpg 97家有喜事.1997.BDRip.All's Well, Ends Well 1997.HKG.2AC3.mkv_20210511_1409.jpg 97家有喜事.1997.BDRip.All's Well, Ends Well 1997.HKG.2AC3.mkv_20210511_1407.jpg 97家有喜事.1997.BDRip.All's Well, Ends Well 1997.HKG.2AC3.mkv_20210511_1407.jpg

97家有喜事.1997.BDRip.All's Well, Ends Well 1997.HKG.2AC3.mkv.jpg

  1. Video
  2. ID                             : 1
  3. Format                         : AVC
  4. Format/Info                    : Advanced Video Codec
  5. Format profile                 : High@L4.1
  6. Format settings                : CABAC / 4 Ref Frames
  7. Format settings, CABAC         : Yes
  8. Format settings, Reference fra : 4 frames
  9. Codec ID                       : V_MPEG4/ISO/AVC
  10. Duration                       : 1 h 32 min
  11. Bit rate                       : 11.5 Mb/s
  12. Width                          : 1 920 pixels
  13. Height                         : 1 080 pixels
  14. Display aspect ratio           : 16:9
  15. Frame rate mode                : Constant
  16. Frame rate                     : 24.000 FPS
  17. Color space                    : YUV
  18. Chroma subsampling             : 4:2:0
  19. Bit depth                      : 8 bits
  20. Scan type                      : Progressive
  21. Bits/(Pixel*Frame)             : 0.231
  22. Stream size                    : 7.44 GiB (90%)
  23. Title                          : 盘乐网@至尊宝
  24. Writing library                : x264 core 148 r2748 97eaef2
  25. Encoding settings              : cabac=1 / ref=4 / deblock=1:-2:-2 / analyse=0x3:0x113 / me=umh / subme=9 / psy=1 / psy_rd=1.00:0.15 / mixed_ref=1 / me_range=16 / chroma_me=1 / trellis=2 / 8x8dct=1 / cqm=0 / deadzone=21,11 / fast_pskip=1 / chroma_qp_offset=-3 / threads=24 / lookahead_threads=3 / sliced_threads=0 / nr=0 / decimate=1 / interlaced=0 / bluray_compat=0 / constrained_intra=0 / bframes=3 / b_pyramid=2 / b_adapt=1 / b_bias=0 / direct=3 / weightb=1 / open_gop=0 / weightp=2 / keyint=250 / keyint_min=25 / scenecut=40 / intra_refresh=0 / rc_lookahead=50 / rc=2pass / mbtree=1 / bitrate=11500 / ratetol=1.0 / qcomp=0.60 / qpmin=0 / qpmax=69 / qpstep=4 / cplxblur=20.0 / qblur=0.5 / vbv_maxrate=31250 / vbv_bufsize=31250 / nal_hrd=none / filler=0 / ip_ratio=1.40 / aq=1:1.00
  26. Language                       : Chinese
  27. Default                        : Yes
  28. Forced                         : No

  29. Audio #1
  30. ID                             : 2
  31. Format                         : AC-3
  32. Format/Info                    : Audio Coding 3
  33. Commercial name                : Dolby Digital
  34. Codec ID                       : A_AC3
  35. Duration                       : 1 h 32 min
  36. Bit rate mode                  : Constant
  37. Bit rate                       : 640 kb/s
  38. Channel(s)                     : 6 channels
  39. Channel layout                 : L R C LFE Ls Rs
  40. Sampling rate                  : 48.0 kHz
  41. Frame rate                     : 31.250 FPS (1536 SPF)
  42. Compression mode               : Lossy
  43. Stream size                    : 424 MiB (5%)
  44. Title                          : 国语
  45. Language                       : Chinese
  46. Service kind                   : Complete Main
  47. Default                        : Yes
  48. Forced                         : No

  49. Audio #2
  50. ID                             : 3
  51. Format                         : AC-3
  52. Format/Info                    : Audio Coding 3
  53. Commercial name                : Dolby Digital
  54. Codec ID                       : A_AC3
  55. Duration                       : 1 h 32 min
  56. Bit rate mode                  : Constant
  57. Bit rate                       : 640 kb/s
  58. Channel(s)                     : 6 channels
  59. Channel layout                 : L R C LFE Ls Rs
  60. Sampling rate                  : 48.0 kHz
  61. Frame rate                     : 31.250 FPS (1536 SPF)
  62. Compression mode               : Lossy
  63. Stream size                    : 424 MiB (5%)
  64. Title                          : 粤语
  65. Language                       : Chinese
  66. Service kind                   : Complete Main
  67. Default                        : No
  68. Forced                         : No

  69. Text #1
  70. ID                             : 4
  71. Format                         : UTF-8
  72. Codec ID                       : S_TEXT/UTF8
  73. Codec ID/Info                  : UTF-8 Plain Text
  74. Duration                       : 1 h 31 min
  75. Bit rate                       : 66 b/s
  76. Count of elements              : 1688
  77. Stream size                    : 44.8 KiB (0%)
  78. Title                          : 简体
  79. Language                       : Chinese
  80. Default                        : Yes
  81. Forced                         : No

  82. Text #2
  83. ID                             : 5
  84. Format                         : UTF-8
  85. Codec ID                       : S_TEXT/UTF8
  86. Codec ID/Info                  : UTF-8 Plain Text
  87. Duration                       : 1 h 31 min
  88. Bit rate                       : 66 b/s
  89. Count of elements              : 1688
  90. Stream size                    : 44.8 KiB (0%)
  91. Title                          : 繁体
  92. Language                       : Chinese
  93. Default                        : No
  94. Forced                         : No

  95. Text #3
  96. ID                             : 6
  97. Format                         : UTF-8
  98. Codec ID                       : S_TEXT/UTF8
  99. Codec ID/Info                  : UTF-8 Plain Text
  100. Duration                       : 1 h 31 min
  101. Bit rate                       : 142 b/s
  102. Count of elements              : 1688
  103. Stream size                    : 95.9 KiB (0%)
  104. Title                          : 腾祥嘉丽中圆简体
  105. Language                       : Chinese
  106. Default                        : No
  107. Forced                         : No

  108. Text #4
  109. ID                             : 7
  110. Format                         : UTF-8
  111. Codec ID                       : S_TEXT/UTF8
  112. Codec ID/Info                  : UTF-8 Plain Text
  113. Duration                       : 1 h 31 min
  114. Bit rate                       : 142 b/s
  115. Count of elements              : 1688
  116. Stream size                    : 95.9 KiB (0%)
  117. Title                          : 腾祥嘉丽中圆繁体
  118. Language                       : Chinese
  119. Default                        : No
  120. Forced                         : No

  121. Menu
  122. 00:00:00.000                   : en:Chapter 01
  123. 00:07:28.417                   : en:Chapter 02
  124. 00:19:29.375                   : en:Chapter 03
  125. 00:25:24.500                   : en:Chapter 04
  126. 00:34:33.292                   : en:Chapter 05
  127. 00:40:46.000                   : en:Chapter 06
  128. 00:47:44.375                   : en:Chapter 07
  129. 00:54:05.000                   : en:Chapter 08
  130. 01:04:35.708                   : en:Chapter 09
  131. 01:13:56.000                   : en:Chapter 10
  132. 01:21:44.958                   : en:Chapter 11
  133. 01:26:06.542                   : en:Chapter 12

复制代码



◎资源链接:
点击进入百度网盘下载(←购买前请先验证分享链接是否有效)


此处内容付费可见

此处内容需要向楼主支付盘币或购买VIP才能显示 已有 43 人购买 

支付 3 盘币 升级VIP


该资源其他网盘分享渠道→点此了解功能详情

使用115网盘下载(来自 至尊宝c 的分享,下载需要单独支付 3 盘币)

免责申明 - 论坛版权1、本站所有资源均来自会员分享或网络收集整理,仅供会员交流学习,禁用商业用途或盈利,下载后请在24小时之内删除;
2、本站(www.pan6.com)支持正版,本资源版权归版权方所有,观看或阅读请到相应机构购买正版资源;
3、本站资源均来源于网络,本站不参与录制、上传,如本帖侵犯到任何版权问题,请立即告知本站(admin#pan6.com(#=@)),本站将及时予与删除并致以最深的歉意;
楼主热贴推荐
禁止倒卖资源,资源有问题请私信
BT资源无法下载:戳这里,不会发帖、金币相关等新手问题:戳这里
回复

拉黑 使用道具 举报

为保留有用回复信息,此处有 43 个购买者的感谢留言已隐藏

主题
7
活跃值
4564
热心值
5
盘币
165
注册时间
2017-1-14
最后登录
2021-6-23
在线时间
62 小时

老会员勋章

发表于 2021-5-12 10:21:06 | 显示全部楼层

支持一下
回复

拉黑 使用道具 举报

严禁灌水、讽刺、挖苦、辱骂分享者行为。回复前请详读:点击进入 理性回复,以免永久封禁。
您需要登录后才可以回帖 登录 | 加入论坛

本版积分规则

免责声明:本站所有资源均收集自互联网,没有提供影片资源存储,也未参与录制、上传。若本站收录的资源涉及您的版权或知识产权或其他利益,请附上版权证明邮件告知,在收到邮件后24小时内删除。

Copyright © 2012 [盘乐网] 管理员邮箱:admin#pan6.com(#=@)

站长信箱|sitemap|手机版|小黑屋|百度统计|盘乐网 ( 粤ICP备18120611号 )

快速回复 返回顶部 返回列表