盘乐网

 找回密码
 加入论坛

QQ登录

只需一步,快速开始

提示:多个关键词中间加空格 例如:天龙八部 星河
查看: 288|回复: 24

[BD-1080P] [百度云+115][中国台湾][1991][推手][郎雄/王莱/王伯昭][剧情][国语简繁软中字][1080P][MKV/7.66G][台版蓝光修复无水印] 含百度网盘 含百度网盘

[复制链接]

主题
2207
活跃值
10236
热心值
1701
盘币
256564
注册时间
2018-4-7
最后登录
2021-6-24
在线时间
1438 小时

长期在线阳光心情老会员勋章鼎力支持我是土豪优秀会员普通精华热心人士爱心满满灌水之王荣誉会员资源组成员动漫达人夜猫子

发表于 2021-5-11 16:18:29 | 显示全部楼层 |阅读模式
请尊重分享者,本资源仅限交流未经楼主同意严禁转载或盈利,违者封号处理!
p2555848629_gaitubao_455x575.jpg
◎译  名 Pushing Hands
◎片  名 推手
◎年  代 1991
◎产  地 中国台湾 / 美国
◎类  别 剧情 / 家庭
◎语  言 汉语普通话 / 英语 / 粤语
◎上映日期 1991-12-07(金马影展)
◎IMDb评分  7.3/10 from 3805 users
◎IMDb链接  https://www.imdb.com/title/tt0105652
◎豆瓣评分 8.4/10 from 119914 users
◎豆瓣链接 https://movie.douban.com/subject/1306939/
◎片  长 105 分钟
◎导  演 李安 Ang Lee
◎编  剧 李安 Ang Lee / 詹姆斯·夏慕斯 James Schamus
◎主  演 郎雄 Sihung Lung
       王莱 Lai Wang
       王伯昭 Bozhao Wang
       戴布·斯内德 Deb Snyder
       李涵 Haan Lee
       陈捷文 Chit-Man Chan
       李巨源 Gui Yuen Lee
       刘怡明 Emily Yi-Ming Liu
       王洪彰 Hung Chang Wang
       黎拨佳 B.C. Lee


◎标  签 李安 | 家庭 | 台湾 | 剧情 | 郎雄 | 台湾电影 | 亲情 | 推手

◎简  介  

  老朱(郎雄)被儿子晓生(王伯昭)从北京接到美国后,不但没享清福,反因与作家儿媳马莎(Deb Snyder)语言不通、在生活习性上有诸多差异,添出许多新愁(老朱对马莎的世界不好奇,马莎虽对老朱的世界好奇,却并不想作深入的理解,而是在好奇过后深深厌恶),倔强的老朱一片灰心(竟然在儿子家里尝到寄人篱下的滋味!),愤然离家出走。一次偶然事件令美国媒体对老朱的太极绝技称奇,晓生和马莎也在看过电视新闻后找到了老朱,但此时的老朱已明白,处境凄凉总好过晚节不保。

◎获奖情况  

  第28届台北金马影展(1991)
  金马奖 最佳剧情片(提名)
  金马奖 最佳导演(提名) 李安
  金马奖 最佳男主角 郎雄
  金马奖 最佳女配角 王莱
  金马奖 最佳原著剧本(提名) 李安
  金马奖 最佳摄影(提名) 林良忠
  金马奖 最佳原创配乐(提名) 瞿小松
  金马奖 最佳剪辑(提名) 李安
  特别评审团奖 李安


◎截    图
推手.1991.BDRip.Pushing Hands.TWN.AC3 .mkv_20210511_141931.793.jpg 推手.1991.BDRip.Pushing Hands.TWN.AC3 .mkv_20210511_141938.951.jpg 推手.1991.BDRip.Pushing Hands.TWN.AC3 .mkv_20210511_141922.605.jpg 推手.1991.BDRip.Pushing Hands.TWN.AC3 .mkv_20210511_141913.286.jpg

推手.1991.BDRip.Pushing Hands.TWN.AC3 .mkv.jpg

  1. Video
  2. ID                             : 1
  3. Format                         : AVC
  4. Format/Info                    : Advanced Video Codec
  5. Format profile                 : High@L4.1
  6. Format settings                : CABAC / 4 Ref Frames
  7. Format settings, CABAC         : Yes
  8. Format settings, Reference fra : 4 frames
  9. Codec ID                       : V_MPEG4/ISO/AVC
  10. Duration                       : 1 h 45 min
  11. Bit rate                       : 9 774 kb/s
  12. Width                          : 1 920 pixels
  13. Height                         : 1 036 pixels
  14. Display aspect ratio           : 1.85:1
  15. Frame rate mode                : Constant
  16. Frame rate                     : 24.000 FPS
  17. Color space                    : YUV
  18. Chroma subsampling             : 4:2:0
  19. Bit depth                      : 8 bits
  20. Scan type                      : Progressive
  21. Bits/(Pixel*Frame)             : 0.205
  22. Stream size                    : 7.18 GiB (94%)
  23. Title                          : 盘乐网@至尊宝
  24. Writing library                : x264 core 130 r2273 b3065e6
  25. Encoding settings              : cabac=1 / ref=3 / deblock=1:0:0 / analyse=0x3:0x113 / me=hex / subme=7 / psy=1 / psy_rd=1.00:0.00 / mixed_ref=1 / me_range=16 / chroma_me=1 / trellis=1 / 8x8dct=1 / cqm=0 / deadzone=21,11 / fast_pskip=1 / chroma_qp_offset=-2 / threads=16 / lookahead_threads=2 / sliced_threads=0 / nr=0 / decimate=1 / interlaced=0 / bluray_compat=0 / constrained_intra=0 / bframes=3 / b_pyramid=2 / b_adapt=1 / b_bias=0 / direct=1 / weightb=1 / open_gop=0 / weightp=2 / keyint=240 / keyint_min=24 / scenecut=40 / intra_refresh=0 / rc_lookahead=40 / rc=2pass / mbtree=1 / bitrate=9774 / ratetol=1.0 / qcomp=0.60 / qpmin=0 / qpmax=69 / qpstep=4 / cplxblur=20.0 / qblur=0.5 / ip_ratio=1.40 / aq=1:1.00
  26. Language                       : English
  27. Default                        : Yes
  28. Forced                         : No

  29. Audio
  30. ID                             : 2
  31. Format                         : AC-3
  32. Format/Info                    : Audio Coding 3
  33. Commercial name                : Dolby Digital
  34. Codec ID                       : A_AC3
  35. Duration                       : 1 h 45 min
  36. Bit rate mode                  : Constant
  37. Bit rate                       : 640 kb/s
  38. Channel(s)                     : 2 channels
  39. Channel layout                 : L R
  40. Sampling rate                  : 48.0 kHz
  41. Frame rate                     : 31.250 FPS (1536 SPF)
  42. Compression mode               : Lossy
  43. Stream size                    : 481 MiB (6%)
  44. Title                          : 国语
  45. Language                       : Chinese
  46. Service kind                   : Complete Main
  47. Default                        : Yes
  48. Forced                         : No

  49. Text #1
  50. ID                             : 3
  51. Format                         : UTF-8
  52. Codec ID                       : S_TEXT/UTF8
  53. Codec ID/Info                  : UTF-8 Plain Text
  54. Duration                       : 1 h 36 min
  55. Bit rate                       : 40 b/s
  56. Count of elements              : 1496
  57. Stream size                    : 28.9 KiB (0%)
  58. Title                          : 简体
  59. Language                       : Chinese
  60. Default                        : Yes
  61. Forced                         : No

  62. Text #2
  63. ID                             : 4
  64. Format                         : UTF-8
  65. Codec ID                       : S_TEXT/UTF8
  66. Codec ID/Info                  : UTF-8 Plain Text
  67. Duration                       : 1 h 36 min
  68. Bit rate                       : 40 b/s
  69. Count of elements              : 1496
  70. Stream size                    : 28.9 KiB (0%)
  71. Title                          : 繁体
  72. Language                       : Chinese
  73. Default                        : No
  74. Forced                         : No

  75. Text #3
  76. ID                             : 5
  77. Format                         : UTF-8
  78. Codec ID                       : S_TEXT/UTF8
  79. Codec ID/Info                  : UTF-8 Plain Text
  80. Duration                       : 1 h 36 min
  81. Bit rate                       : 105 b/s
  82. Count of elements              : 1496
  83. Stream size                    : 74.2 KiB (0%)
  84. Title                          : 腾祥嘉丽中圆简体
  85. Language                       : Chinese
  86. Default                        : No
  87. Forced                         : No

  88. Text #4
  89. ID                             : 6
  90. Format                         : UTF-8
  91. Codec ID                       : S_TEXT/UTF8
  92. Codec ID/Info                  : UTF-8 Plain Text
  93. Duration                       : 1 h 36 min
  94. Bit rate                       : 105 b/s
  95. Count of elements              : 1496
  96. Stream size                    : 74.2 KiB (0%)
  97. Title                          : 腾祥嘉丽中圆繁体
  98. Language                       : Chinese
  99. Default                        : No
  100. Forced                         : No

  101. Menu
  102. 00:00:00.000                   : en:00:00:00.000
  103. 00:20:10.458                   : en:00:20:10.458
  104. 00:39:43.667                   : en:00:39:43.667
  105. 01:02:04.500                   : en:01:02:04.500
  106. 01:19:41.208                   : en:01:19:41.208
  107. 01:43:34.250                   : en:01:43:34.250

复制代码



◎资源链接:
点击进入百度网盘下载(←购买前请先验证分享链接是否有效)


此处内容付费可见

此处内容需要向楼主支付盘币或购买VIP才能显示 已有 24 人购买 

支付 5 盘币 升级VIP


该资源其他网盘分享渠道→点此了解功能详情

使用115网盘下载(来自 至尊宝c 的分享,下载需要单独支付 5 盘币)

免责申明 - 论坛版权1、本站所有资源均来自会员分享或网络收集整理,仅供会员交流学习,禁用商业用途或盈利,下载后请在24小时之内删除;
2、本站(www.pan6.com)支持正版,本资源版权归版权方所有,观看或阅读请到相应机构购买正版资源;
3、本站资源均来源于网络,本站不参与录制、上传,如本帖侵犯到任何版权问题,请立即告知本站(admin#pan6.com(#=@)),本站将及时予与删除并致以最深的歉意;
楼主热贴推荐
禁止倒卖资源,资源有问题请私信
BT资源无法下载:戳这里,不会发帖、金币相关等新手问题:戳这里
回复

拉黑 使用道具 举报

为保留有用回复信息,此处有 24 个购买者的感谢留言已隐藏
严禁灌水、讽刺、挖苦、辱骂分享者行为。回复前请详读:点击进入 理性回复,以免永久封禁。
您需要登录后才可以回帖 登录 | 加入论坛

本版积分规则

免责声明:本站所有资源均收集自互联网,没有提供影片资源存储,也未参与录制、上传。若本站收录的资源涉及您的版权或知识产权或其他利益,请附上版权证明邮件告知,在收到邮件后24小时内删除。

Copyright © 2012 [盘乐网] 管理员邮箱:admin#pan6.com(#=@)

站长信箱|sitemap|手机版|小黑屋|百度统计|盘乐网 ( 粤ICP备18120611号 )

快速回复 返回顶部 返回列表