盘乐网

 找回密码
 加入论坛

QQ登录

只需一步,快速开始

提示:多个关键词中间加空格 例如:天龙八部 星河
查看: 406|回复: 36

[BD-1080P] [百度云+115][中国台湾][1993][喜宴][赵文瑄/郎雄/归亚蕾][剧情][国语简繁软中字][1080P][MKV/10.22G][台版蓝光修复无水印] 含百度网盘 含115网盘

[复制链接]

主题
2789
活跃值
19546
热心值
2218
盘币
386105
注册时间
2018-4-7
最后登录
2021-10-21
在线时间
1626 小时

长期在线阳光心情老会员勋章鼎力支持我是土豪优秀会员普通精华热心人士爱心满满灌水之王荣誉会员资源组成员动漫达人夜猫子

发表于 2021-5-11 16:22:26 | 显示全部楼层 |阅读模式
请尊重分享者,本资源仅限交流未经楼主同意严禁转载或盈利,违者封号处理!
p2555848923_gaitubao_455x575.jpg
◎译  名 喜宴 / The Wedding Banquet
◎片  名 囍宴
◎年  代 1993
◎产  地 中国台湾 / 美国
◎类  别 剧情 / 喜剧 / 爱情 / 同性 / 家庭
◎语  言 汉语普通话 / 英语
◎上映日期 1993-02(柏林电影节) / 1993-08-04(美国)
◎IMDb评分  7.6/10 from 14126 users
◎IMDb链接  https://www.imdb.com/title/tt0107156
◎豆瓣评分 8.9/10 from 269915 users
◎豆瓣链接 https://movie.douban.com/subject/1303037/
◎片  长 108分钟
◎导  演 李安 Ang Lee
◎编  剧 李安 Ang Lee / 冯光远 Neil Peng / 詹姆斯·夏慕斯 James Schamus
◎主  演 赵文瑄 Winston Chao
       郎雄 Sihung Lung
       归亚蕾 Ya-lei Kuei
       金素梅 May Chin
       米切尔·利希藤斯坦 Mitchell Lichtenstein
       杨元提 Vanessa Yang
       李淳 Mason Lee
       李安 Ang Lee
       迈克尔·加斯顿 Michael Gaston
       许永德 Yung-Teh Hsu
       汉娜·沙利文 Hannah Sullivan
       姚培德 Peide Yao


◎标  签 李安 | 家庭 | 台湾 | 同志 | 同性 | 台湾电影 | 剧情 | 喜宴

◎简  介  

  伟同(赵文瑄)是事业有成的男同志,与男友赛门(Mitchell Lichtenstein)在美国过着幸福的同居日子,烦恼来自要用各种招数应对远在台北的父(郎雄)母(归亚蕾)的一次次逼婚。伟同被逼以“乖乖仔”形象修书一封声称会在美国结婚,没料父母想亲眼见证。无奈,他只得拉上来自上海的不得志的女艺术家葳葳(金素梅)“假婚”,想逃过一劫。父母对葳葳相当满意,却对伟同的草率态度不满,为让父母满意尽快返回台北,伟同犹如“拼命三郎”使出了浑身解数。但人算不如天算,不断的波折使得父母的返台日期一次次推迟,令他和赛门的感情亮起“红灯”,而葳葳又意外怀上了他的孩子。似乎,伟同在强大的父母(传统)面前,只能选择去做一个 “表面正常”的男人。

◎获奖情况  

  第66届奥斯卡金像奖(1994)
  最佳外语片(提名)

  第43届柏林国际电影节(1993)
  金熊奖 最佳影片 李安

  第51届金球奖(1994)
  电影类 最佳外语片(提名)

  第30届台北金马影展(1993)
  金马奖 最佳剧情片
  金马奖 最佳导演 李安
  金马奖 最佳男配角 郎雄
  金马奖 最佳女配角 归亚蕾
  金马奖 最佳原著剧本 冯光远 / 李安
  金马奖 最佳剪辑(提名) 李安
  观众票选最佳影片


◎截    图
喜宴.1993.BDRip.The Wedding Banquet.TWN.AC3.mkv_20210511_142206.587.jpg 喜宴.1993.BDRip.The Wedding Banquet.TWN.AC3.mkv_20210511_142041.637.jpg 喜宴.1993.BDRip.The Wedding Banquet.TWN.AC3.mkv_20210511_142024.790.jpg 喜宴.1993.BDRip.The Wedding Banquet.TWN.AC3.mkv_20210511_141956.989.jpg

喜宴.1993.BDRip.The Wedding Banquet.TWN.AC3.mkv.jpg

  1. Video
  2. ID                             : 1
  3. Format                         : HEVC
  4. Format/Info                    : High Efficiency Video Coding
  5. Format profile                 : Main 10@L5.1@High
  6. Codec ID                       : V_MPEGH/ISO/HEVC
  7. Duration                       : 1 h 47 min
  8. Bit rate                       : 13.2 Mb/s
  9. Width                          : 1 916 pixels
  10. Height                         : 1 036 pixels
  11. Display aspect ratio           : 1.85:1
  12. Frame rate mode                : Constant
  13. Frame rate                     : 24.000 FPS
  14. Color space                    : YUV
  15. Chroma subsampling             : 4:2:0
  16. Bit depth                      : 10 bits
  17. Bits/(Pixel*Frame)             : 0.277
  18. Stream size                    : 9.92 GiB (97%)
  19. Title                          : 盘乐网@至尊宝
  20. Writing library                : x265 3.0+2-ge71f790de+23:[Windows][GCC 8.2.1][64 bit] Yuuki 10bit
  21. Encoding settings              : rc=crf / crf=19.4000 / qcomp=0.60 / qpstep=4 / stats-write=0 / stats-read=0 / vbv-maxrate=160000 / vbv-bufsize=160000 / vbv-init=0.9 / crf-max=0.0 / crf-min=0.0 / no-lossless / no-cu-lossless / aq-mode=3 / aq-strength=0.80 / cbqpoffs=-2 / crqpoffs=-2 / ipratio=1.40 / pbratio=1.30 / psy-rd=0.90 / psy-rdoq=0.40 / deblock=-3:-3 / ref=4 / limit-refs=1 / limit-modes / bframes=12 / b-adapt=2 / bframe-bias=0 / b-pyramid / b-intra / weightp / weightb / min-keyint=23 / max-keyint=480 / rc-lookahead=40 / gop-lookahead=0 / scenecut=40 / radl=0 / max-cu-size=32 / min-cu-size=8 / me=3 / subme=7 / merange=24 / rdoq-level=1 / rd=4 / rdpenalty=0 / dynamic-rd=0.00 / no-rd-refine / ----- / no-cutree / no-sao / no-rect / no-amp / no-open-gop / wpp / no-pmode / no-pme / no-psnr / no-ssim / nr-intra=0 / nr-inter=0 / no-constrained-intra / strong-intra-smoothing / max-tu-size=32 / tu-inter-depth=3 / tu-intra-depth=3 / limit-tu=4 / qg-size=8 / qpmax=69 / qpmin=0 / ----- / cpuid=1111039 / frame-threads=5 / numa-pools=24,24 / log-level=2 / input-csp=1 / input-res=1916x1036 / interlace=0 / level-idc=51 / high-tier=1 / uhd-bd=0 / no-allow-non-conformance / no-repeat-headers / no-aud / no-hrd / info / hash=0 / no-temporal-layers / lookahead-slices=0 / no-splice / no-intra-refresh / no-ssim-rd / signhide / no-tskip / max-merge=3 / temporal-mvp / no-analyze-src-pics / no-sao-non-deblock / no-early-skip / rskip / no-fast-intra / no-tskip-fast / no-splitrd-skip / zone-count=0 / no-strict-cbr / no-rc-grain / no-const-vbv / sar=0 / overscan=0 / videoformat=5 / range=0 / colorprim=2 / transfer=2 / colormatrix=2 / chromaloc=0 / display-window=0 / max-cll=0,0 / min-luma=0 / max-luma=1023 / log2-max-poc-lsb=8 / vui-timing-info / vui-hrd-info / slices=1 / no-opt-qp-pps / no-opt-ref-list-length-pps / no-multi-pass-opt-rps / scenecut-bias=0.05 / no-opt-cu-delta-qp / no-aq-motion / no-hdr / no-hdr-opt / no-dhdr10-opt / no-idr-recovery-sei / analysis-reuse-level=5 / scale-factor=0 / refine-intra=0 / refine-inter=0 / refine-mv=0 / refine-ctu-distortion=0 / no-limit-sao / ctu-info=0 / no-lowpass-dct / refine-analysis-type=0 / copy-pic=1 / max-ausize-factor=1.0 / no-dynamic-refine / no-single-sei / no-hevc-aq / qp-adaptation-range=1.00
  22. Default                        : Yes
  23. Forced                         : No

  24. Audio
  25. ID                             : 2
  26. Format                         : E-AC-3
  27. Format/Info                    : Enhanced AC-3
  28. Commercial name                : Dolby Digital Plus
  29. Codec ID                       : A_EAC3
  30. Duration                       : 1 h 47 min
  31. Bit rate mode                  : Constant
  32. Bit rate                       : 384 kb/s
  33. Channel(s)                     : 2 channels
  34. Channel layout                 : L R
  35. Sampling rate                  : 48.0 kHz
  36. Frame rate                     : 31.250 FPS (1536 SPF)
  37. Compression mode               : Lossy
  38. Stream size                    : 296 MiB (3%)
  39. Title                          : 国语
  40. Language                       : Chinese
  41. Service kind                   : Complete Main
  42. Default                        : Yes
  43. Forced                         : No

  44. Text #1
  45. ID                             : 3
  46. Format                         : UTF-8
  47. Codec ID                       : S_TEXT/UTF8
  48. Codec ID/Info                  : UTF-8 Plain Text
  49. Duration                       : 1 h 43 min
  50. Bit rate                       : 53 b/s
  51. Count of elements              : 1383
  52. Stream size                    : 40.5 KiB (0%)
  53. Title                          : 简体
  54. Language                       : Chinese
  55. Default                        : Yes
  56. Forced                         : No

  57. Text #2
  58. ID                             : 4
  59. Format                         : UTF-8
  60. Codec ID                       : S_TEXT/UTF8
  61. Codec ID/Info                  : UTF-8 Plain Text
  62. Duration                       : 1 h 43 min
  63. Bit rate                       : 53 b/s
  64. Count of elements              : 1383
  65. Stream size                    : 40.5 KiB (0%)
  66. Title                          : 繁体
  67. Language                       : Chinese
  68. Default                        : No
  69. Forced                         : No

  70. Text #3
  71. ID                             : 5
  72. Format                         : UTF-8
  73. Codec ID                       : S_TEXT/UTF8
  74. Codec ID/Info                  : UTF-8 Plain Text
  75. Duration                       : 1 h 43 min
  76. Bit rate                       : 109 b/s
  77. Count of elements              : 1383
  78. Stream size                    : 82.4 KiB (0%)
  79. Title                          : 腾祥嘉丽中圆简体
  80. Language                       : Chinese
  81. Default                        : No
  82. Forced                         : No

  83. Text #4
  84. ID                             : 6
  85. Format                         : UTF-8
  86. Codec ID                       : S_TEXT/UTF8
  87. Codec ID/Info                  : UTF-8 Plain Text
  88. Duration                       : 1 h 43 min
  89. Bit rate                       : 109 b/s
  90. Count of elements              : 1383
  91. Stream size                    : 82.4 KiB (0%)
  92. Title                          : 腾祥嘉丽中圆繁体
  93. Language                       : Chinese
  94. Default                        : No
  95. Forced                         : No

  96. Menu
  97. 00:00:00.000                   : en:第 01 章
  98. 00:20:53.083                   : en:第 02 章
  99. 00:41:33.542                   : en:第 03 章
  100. 01:01:41.417                   : en:第 04 章
  101. 01:19:19.000                   : en:第 05 章
  102. 01:43:40.833                   : en:第 06 章

复制代码



◎资源链接:
点击进入百度网盘下载(←购买前请先验证分享链接是否有效)


此处内容付费可见

此处内容需要向楼主支付盘币或购买VIP才能显示 已有 36 人购买 

支付 5 盘币 升级VIP


该资源其他网盘分享渠道→点此了解功能详情

使用115网盘下载(来自 至尊宝c 的分享,下载需要单独支付 5 盘币)

免责申明 - 论坛版权1、本站所有资源均来自会员分享或网络收集整理,仅供会员交流学习,禁用商业用途或盈利,下载后请在24小时之内删除;
2、本站(www.pan6.com)支持正版,本资源版权归版权方所有,观看或阅读请到相应机构购买正版资源;
3、本站资源均来源于网络,本站不参与录制、上传,如本帖侵犯到任何版权问题,请立即告知本站(admin#pan6.com(#=@)),本站将及时予与删除并致以最深的歉意;
楼主热贴推荐
华语电影爱好者
BT资源无法下载:戳这里,不会发帖、金币相关等新手问题:戳这里
回复

拉黑 使用道具 举报

为保留有用回复信息,此处有 36 个购买者的感谢留言已隐藏
严禁灌水、讽刺、挖苦、辱骂分享者行为。回复前请详读:点击进入 理性回复,以免永久封禁。
您需要登录后才可以回帖 登录 | 加入论坛

本版积分规则

免责声明:本站所有资源均收集自互联网,没有提供影片资源存储,也未参与录制、上传。若本站收录的资源涉及您的版权或知识产权或其他利益,请附上版权证明邮件告知,在收到邮件后24小时内删除。

Copyright © 2012 [盘乐网] 管理员邮箱:admin#pan6.com(#=@)

站长信箱|sitemap|手机版|小黑屋|百度统计|盘乐网 ( 粤ICP备18120611号 )

快速回复 返回顶部 返回列表