盘乐网

 找回密码
 加入论坛

QQ登录

只需一步,快速开始

提示:多个关键词中间加空格 例如:天龙八部 星河
查看: 498|回复: 46

[BD-1080P] [百度云+115][中国香港][1990][狱中龙][刘德华/何家劲/黎姿][犯罪][国粤语简繁软中字][1080P][MKV/9.13G][港版蓝光修复无水印] 含百度网盘 含百度网盘

  [复制链接]

主题
2207
活跃值
10236
热心值
1701
盘币
256560
注册时间
2018-4-7
最后登录
2021-6-24
在线时间
1438 小时

长期在线阳光心情老会员勋章鼎力支持我是土豪优秀会员普通精华热心人士爱心满满灌水之王荣誉会员资源组成员动漫达人夜猫子

发表于 2021-5-11 16:42:53 | 显示全部楼层 |阅读模式
请尊重分享者,本资源仅限交流未经楼主同意严禁转载或盈利,违者封号处理!
p2567941775_gaitubao_455x567.jpg
◎译  名 狱中龙 / Dragon in Jail
◎片  名 獄中龍
◎年  代 1990
◎产  地 中国香港
◎类  别 动作 / 犯罪
◎语  言 汉语普通话/粤语
◎上映日期 1990-09-27
◎IMDb评分  6.0/10 from 138 users
◎IMDb链接  https://www.imdb.com/title/tt0100995
◎豆瓣评分 6.9/10 from 4807 users
◎豆瓣链接 https://movie.douban.com/subject/1302292/
◎片  长 102分钟
◎导  演 郑则仕 Kent Cheng
◎编  剧 南燕 Yin Nam
◎主  演 刘德华 Andy Lau
       何家劲 Kenny Ho
       黎姿 Gigi Lai
       程东 John Ching Tung
       龙方 Fong Lung
       黄锦燊 Melvin Wong
       韩坤 Victor Hon Kwan
       何家驹 Ka-Kui Ho
       曾光展 Kwong-Chin Tsang
       罗树琪 Shu-Kei Law
       杨健惠 Yeung Kin-Wai
       林燕明 Yin-Ming Lam
       韦基舜 Gei Shun Wai
       刘玉基 Yuk Kee Lau
       鲍方 Fong Pau


◎标  签 刘德华 | 香港 | 香港电影 | 黑帮 | 犯罪 | 黎姿 | 动作 | 何家劲

◎简  介  

  富家子弟张荣日(何家劲 饰)因冲动犯事儿进入劳役中心服刑,他老实内向,对道上规矩更是一窍不通,因此饱受虾毛等人欺负,在此期间他结识了颇讲义气的阿豪(刘德华 饰),二人成为莫逆之交。此后他们洗心革面,齐心向学,更通过了中学会考。出狱后,身份不同的两个人也自然走上不同的人生路。荣日飞赴英国,研读法律;阿豪则因家境贫苦,终日为生计奔波,却当年的仇家马超追杀,最终被迫随虾毛遁入黑道。日光荏苒,转眼6年过去。荣日学业有成,顺利归国。阿豪也在腥风血雨中拚杀出自己的一片天空。适值此时,马超设计陷害阿豪,这也促使分处黑白两个世界荣日和阿豪站在同一法庭上。只是时过境迁,个中滋味谁人知……


◎截    图
狱中龙.1990.BDRip.Dragon in Jail.HKG.2AC3.mkv_20210511_142425.758.jpg 狱中龙.1990.BDRip.Dragon in Jail.HKG.2AC3.mkv_20210511_142529.649.jpg 狱中龙.1990.BDRip.Dragon in Jail.HKG.2AC3.mkv_20210511_142608.091.jpg 狱中龙.1990.BDRip.Dragon in Jail.HKG.2AC3.mkv_20210511_142724.151.jpg

狱中龙.1990.BDRip.Dragon in Jail.HKG.2AC3.mkv.jpg

  1. Video
  2. ID                             : 1
  3. Format                         : AVC
  4. Format/Info                    : Advanced Video Codec
  5. Format profile                 : High@L4.1
  6. Format settings                : CABAC / 4 Ref Frames
  7. Format settings, CABAC         : Yes
  8. Format settings, Reference fra : 4 frames
  9. Codec ID                       : V_MPEG4/ISO/AVC
  10. Duration                       : 1 h 42 min
  11. Bit rate                       : 11.5 Mb/s
  12. Width                          : 1 920 pixels
  13. Height                         : 1 080 pixels
  14. Display aspect ratio           : 16:9
  15. Frame rate mode                : Constant
  16. Frame rate                     : 24.000 FPS
  17. Color space                    : YUV
  18. Chroma subsampling             : 4:2:0
  19. Bit depth                      : 8 bits
  20. Scan type                      : Progressive
  21. Bits/(Pixel*Frame)             : 0.231
  22. Stream size                    : 8.21 GiB (90%)
  23. Title                          : 盘乐网@至尊宝
  24. Writing library                : x264 core 148 r2748 97eaef2
  25. Encoding settings              : cabac=1 / ref=4 / deblock=1:-2:-2 / analyse=0x3:0x113 / me=umh / subme=9 / psy=1 / psy_rd=1.00:0.15 / mixed_ref=1 / me_range=16 / chroma_me=1 / trellis=2 / 8x8dct=1 / cqm=0 / deadzone=21,11 / fast_pskip=1 / chroma_qp_offset=-3 / threads=24 / lookahead_threads=3 / sliced_threads=0 / nr=0 / decimate=1 / interlaced=0 / bluray_compat=0 / constrained_intra=0 / bframes=3 / b_pyramid=2 / b_adapt=1 / b_bias=0 / direct=3 / weightb=1 / open_gop=0 / weightp=2 / keyint=250 / keyint_min=25 / scenecut=40 / intra_refresh=0 / rc_lookahead=50 / rc=2pass / mbtree=1 / bitrate=11500 / ratetol=1.0 / qcomp=0.60 / qpmin=0 / qpmax=69 / qpstep=4 / cplxblur=20.0 / qblur=0.5 / vbv_maxrate=31250 / vbv_bufsize=31250 / nal_hrd=none / filler=0 / ip_ratio=1.40 / aq=1:1.00
  26. Language                       : Chinese
  27. Default                        : Yes
  28. Forced                         : No

  29. Audio #1
  30. ID                             : 2
  31. Format                         : AC-3
  32. Format/Info                    : Audio Coding 3
  33. Commercial name                : Dolby Digital
  34. Codec ID                       : A_AC3
  35. Duration                       : 1 h 42 min
  36. Bit rate mode                  : Constant
  37. Bit rate                       : 640 kb/s
  38. Channel(s)                     : 2 channels
  39. Channel layout                 : L R
  40. Sampling rate                  : 48.0 kHz
  41. Frame rate                     : 31.250 FPS (1536 SPF)
  42. Compression mode               : Lossy
  43. Stream size                    : 467 MiB (5%)
  44. Title                          : 国语
  45. Language                       : Chinese
  46. Service kind                   : Complete Main
  47. Default                        : Yes
  48. Forced                         : No

  49. Audio #2
  50. ID                             : 3
  51. Format                         : AC-3
  52. Format/Info                    : Audio Coding 3
  53. Commercial name                : Dolby Digital
  54. Codec ID                       : A_AC3
  55. Duration                       : 1 h 42 min
  56. Bit rate mode                  : Constant
  57. Bit rate                       : 640 kb/s
  58. Channel(s)                     : 2 channels
  59. Channel layout                 : L R
  60. Sampling rate                  : 48.0 kHz
  61. Frame rate                     : 31.250 FPS (1536 SPF)
  62. Compression mode               : Lossy
  63. Stream size                    : 468 MiB (5%)
  64. Title                          : 粤语
  65. Language                       : Chinese
  66. Service kind                   : Complete Main
  67. Default                        : No
  68. Forced                         : No

  69. Text #1
  70. ID                             : 4
  71. Format                         : UTF-8
  72. Codec ID                       : S_TEXT/UTF8
  73. Codec ID/Info                  : UTF-8 Plain Text
  74. Duration                       : 1 h 39 min
  75. Bit rate                       : 64 b/s
  76. Count of elements              : 1602
  77. Stream size                    : 46.4 KiB (0%)
  78. Title                          : 简体
  79. Language                       : Chinese
  80. Default                        : Yes
  81. Forced                         : No

  82. Text #2
  83. ID                             : 5
  84. Format                         : UTF-8
  85. Codec ID                       : S_TEXT/UTF8
  86. Codec ID/Info                  : UTF-8 Plain Text
  87. Duration                       : 1 h 39 min
  88. Bit rate                       : 64 b/s
  89. Count of elements              : 1602
  90. Stream size                    : 46.4 KiB (0%)
  91. Title                          : 繁体
  92. Language                       : Chinese
  93. Default                        : No
  94. Forced                         : No

  95. Text #3
  96. ID                             : 6
  97. Format                         : UTF-8
  98. Codec ID                       : S_TEXT/UTF8
  99. Codec ID/Info                  : UTF-8 Plain Text
  100. Duration                       : 1 h 39 min
  101. Bit rate                       : 130 b/s
  102. Count of elements              : 1602
  103. Stream size                    : 94.9 KiB (0%)
  104. Title                          : 腾祥嘉丽中圆简体
  105. Language                       : Chinese
  106. Default                        : No
  107. Forced                         : No

  108. Text #4
  109. ID                             : 7
  110. Format                         : UTF-8
  111. Codec ID                       : S_TEXT/UTF8
  112. Codec ID/Info                  : UTF-8 Plain Text
  113. Duration                       : 1 h 39 min
  114. Bit rate                       : 130 b/s
  115. Count of elements              : 1602
  116. Stream size                    : 94.9 KiB (0%)
  117. Title                          : 腾祥嘉丽中圆繁体
  118. Language                       : Chinese
  119. Default                        : No
  120. Forced                         : No

  121. Menu
  122. 00:00:00.000                   : en:第 01 ç«
  123. 00:09:44.750                   : en:第 02 ç«
  124. 00:16:39.250                   : en:第 03 ç«
  125. 00:25:32.166                   : en:第 04 ç«
  126. 00:35:06.083                   : en:第 05 ç«
  127. 00:42:39.666                   : en:第 06 ç«
  128. 00:51:30.875                   : en:第 07 ç«
  129. 00:59:10.666                   : en:第 08 ç«
  130. 01:07:09.458                   : en:第 09 ç«
  131. 01:14:13.125                   : en:第 10 ç«
  132. 01:24:32.541                   : en:第 11 ç«
  133. 01:34:21.208                   : en:第 12 ç«

复制代码



◎资源链接:
点击进入百度网盘下载(←购买前请先验证分享链接是否有效)


此处内容付费可见

此处内容需要向楼主支付盘币或购买VIP才能显示 已有 43 人购买 

支付 5 盘币 升级VIP


该资源其他网盘分享渠道→点此了解功能详情

使用115网盘下载(来自 至尊宝c 的分享,下载需要单独支付 5 盘币)

免责申明 - 论坛版权1、本站所有资源均来自会员分享或网络收集整理,仅供会员交流学习,禁用商业用途或盈利,下载后请在24小时之内删除;
2、本站(www.pan6.com)支持正版,本资源版权归版权方所有,观看或阅读请到相应机构购买正版资源;
3、本站资源均来源于网络,本站不参与录制、上传,如本帖侵犯到任何版权问题,请立即告知本站(admin#pan6.com(#=@)),本站将及时予与删除并致以最深的歉意;
楼主热贴推荐
禁止倒卖资源,资源有问题请私信
BT资源无法下载:戳这里,不会发帖、金币相关等新手问题:戳这里
回复

拉黑 使用道具 举报

为保留有用回复信息,此处有 43 个购买者的感谢留言已隐藏

主题
7
活跃值
4564
热心值
5
盘币
165
注册时间
2017-1-14
最后登录
2021-6-23
在线时间
62 小时

老会员勋章

发表于 2021-5-12 10:23:12 | 显示全部楼层

支持一下
回复

拉黑 使用道具 举报

主题
0
活跃值
1636
热心值
0
盘币
446
注册时间
2018-3-9
最后登录
2021-6-24
在线时间
14 小时
发表于 2021-5-12 15:29:41 | 显示全部楼层
这个很不错的 感谢了
回复

拉黑 使用道具 举报

主题
0
活跃值
2041
热心值
0
盘币
40
注册时间
2017-11-14
最后登录
2021-6-23
在线时间
96 小时
发表于 2021-5-23 23:19:13 | 显示全部楼层
谢谢分享,喜欢
回复

拉黑 使用道具 举报

严禁灌水、讽刺、挖苦、辱骂分享者行为。回复前请详读:点击进入 理性回复,以免永久封禁。
您需要登录后才可以回帖 登录 | 加入论坛

本版积分规则

免责声明:本站所有资源均收集自互联网,没有提供影片资源存储,也未参与录制、上传。若本站收录的资源涉及您的版权或知识产权或其他利益,请附上版权证明邮件告知,在收到邮件后24小时内删除。

Copyright © 2012 [盘乐网] 管理员邮箱:admin#pan6.com(#=@)

站长信箱|sitemap|手机版|小黑屋|百度统计|盘乐网 ( 粤ICP备18120611号 )

快速回复 返回顶部 返回列表