盘乐网

 找回密码
 加入论坛
提示:多个关键词中间加空格 例如:天龙八部 星河
查看: 813|回复: 89

[BD-1080P] [中国香港][1988][金装大酒店][郑则仕/张学友/王祖贤][喜剧][国粤语简繁软中字][1080P][MKV/4.32G][港版蓝光修复无水印][至尊宝] 含百度网盘 含115网盘

  [复制链接]

主题
3186
活跃值
21641
热心值
2604
盘币
363708
注册时间
2018-4-7
最后登录
2022-1-21
在线时间
1797 小时

长期在线阳光心情老会员勋章鼎力支持我是土豪优秀会员普通精华热心人士爱心满满灌水之王荣誉会员资源组成员动漫达人夜猫子

发表于 2021-5-30 09:15:00 | 显示全部楼层 |阅读模式
请尊重分享者,本资源仅限交流未经楼主同意严禁转载或盈利,违者封号处理!
p2651833290_gaitubao_455x528.jpg
◎译  名 金装大酒店 / Carry On Hotel / Carry on Hotel
◎片  名 金裝大酒店
◎年  代 1988
◎产  地 中国香港
◎类  别 喜剧
◎语  言 汉语普通话/粤语
◎上映日期 1988-07-02(中国香港)
◎IMDb评星  ★★★★★✦☆☆☆☆
◎IMDb评分  5.3/10 from 68 users
◎IMDb链接  https://www.imdb.com/title/tt0095402/
◎豆瓣评星 ★★★☆☆
◎豆瓣评分 6.3/10 from 3,122 users
◎豆瓣链接 https://movie.douban.com/subject/1303130/
◎片  长 88分钟
◎导  演 刘镇伟 / Jeffrey Lau
◎演  员 郑则仕 / Kent Cheng
      吴耀汉 / Richard Ng
      张学友 / Jacky Cheung
      王祖贤 / Joey Wong
      叶童 / Cecilia Yip
      曾志伟 / Eric Tsang
      钟楚红 / Cherie Chung
      夏文汐 / Patricia Ha
      胡枫 / Fung Woo
      秦祥林 / Charlie Chin
      单立文 / Pal Sinn
      吕秀菱 / Hsiu-ling Lu
      仓田保昭 / Yasuaki Kurata
      何守信 / Ivan Ho
      陈辉虹 / Fai-hung Chan
      楼南光 / Billy Lau
      叶荣祖 / Wing-Cho Yip
◎编  剧 刘镇伟 / Jeffrey Lau
◎摄  影 陈远佳 / Yuen Kai Chan
◎副  导  演 高满楷 / Stanley Ko
      陈永标 / Bill Chan

◎标  签 香港 | 王祖贤 | 喜剧 | 香港电影 | 张学友 | 钟楚红 | 刘镇伟 | 叶童

◎简  介 

  新加坡的一家高档酒店内,工作人员与客人们上演一幕幕底色不同的人间喜剧……
  胖侦探(郑则仕 饰)为取得年迈委托人少妻与一男子(秦祥林 饰)偷情的证据,在酒店房间内安装摄像头,但闭路电视的接收房间却入住了三名乐队成员。这对情人在发现摄像头之后百般掩饰,乐手与服务员们却在电视机前看的不亦乐乎;署名“吴资”的骗子(吴耀汉 饰)入住酒店,却被经理(胡枫 饰)误当做低调检查工作的日本总裁。骗子借势大占便宜,从酒店狠捞一笔;旅行团导游(曾志伟 饰)为人好色,被旅行团内仇恨花心男的精神病患钟小姐(钟楚红 饰)盯上,好色导游面对钟小姐的剔骨刀无可奈何之际,另一名悲情女护士安琪(夏文汐 饰)也找上门来;迷恋女上司(王祖贤 饰)的酒店技工(张学友 饰)苦苦求爱,不经意间忽视了假小子同事(叶童 饰)的默默付出。


◎截    图
金装大酒店.1988.BDRip.Carry On Hotel.HKG.2Audio.@至尊宝.mkv_20211213_142413.094..jpg 金装大酒店.1988.BDRip.Carry On Hotel.HKG.2Audio.@至尊宝.mkv_20211213_142513.830..jpg 金装大酒店.1988.BDRip.Carry On Hotel.HKG.2Audio.@至尊宝.mkv_20211213_142442.688..jpg 金装大酒店.1988.BDRip.Carry On Hotel.HKG.2Audio.@至尊宝.mkv_20211213_142431.400..jpg

金装大酒店.1988.BDRip.Carry On Hotel.HKG.2Audio.@至尊宝.mkv.jpg

  1. Video
  2. ID                             : 1
  3. Format                         : HEVC
  4. Format/Info                    : High Efficiency Video Coding
  5. Format profile                 : Main 10@L4@Main
  6. Codec ID                       : V_MPEGH/ISO/HEVC
  7. Duration                       : 1 h 27 min
  8. Bit rate                       : 5 758 kb/s
  9. Width                          : 1 920 pixels
  10. Height                         : 1 080 pixels
  11. Display aspect ratio           : 16:9
  12. Frame rate mode                : Constant
  13. Frame rate                     : 24.000 FPS
  14. Color space                    : YUV
  15. Chroma subsampling             : 4:2:0
  16. Bit depth                      : 10 bits
  17. Bits/(Pixel*Frame)             : 0.116
  18. Stream size                    : 3.52 GiB (82%)
  19. Title                          : @至尊宝
  20. Writing library                : x265 3.4+12-geff904199:[Windows][GCC 5.4.0][64 bit] 10bit
  21. Encoding settings              : cpuid=1111039 / frame-threads=3 / numa-pools=8 / wpp / no-pmode / no-pme / no-psnr / no-ssim / log-level=2 / input-csp=1 / input-res=1920x1080 / interlace=0 / total-frames=0 / level-idc=0 / high-tier=1 / uhd-bd=0 / ref=1 / no-allow-non-conformance / no-repeat-headers / annexb / no-aud / no-hrd / info / hash=0 / no-temporal-layers / open-gop / min-keyint=24 / keyint=240 / gop-lookahead=0 / bframes=3 / b-adapt=0 / b-pyramid / bframe-bias=0 / rc-lookahead=5 / lookahead-slices=6 / scenecut=0 / hist-scenecut=0 / radl=0 / no-splice / no-intra-refresh / ctu=32 / min-cu-size=16 / no-rect / no-amp / max-tu-size=32 / tu-inter-depth=1 / tu-intra-depth=1 / limit-tu=0 / rdoq-level=0 / dynamic-rd=0.00 / no-ssim-rd / no-signhide / no-tskip / nr-intra=0 / nr-inter=0 / no-constrained-intra / strong-intra-smoothing / max-merge=2 / limit-refs=0 / no-limit-modes / me=0 / subme=0 / merange=57 / temporal-mvp / no-frame-dup / no-hme / no-weightp / no-weightb / no-analyze-src-pics / deblock=0:0 / no-sao / no-sao-non-deblock / rd=2 / selective-sao=0 / early-skip / rskip / fast-intra / no-tskip-fast / no-cu-lossless / no-b-intra / no-splitrd-skip / rdpenalty=0 / psy-rd=0.00 / psy-rdoq=0.00 / no-rd-refine / no-lossless / cbqpoffs=0 / crqpoffs=0 / rc=crf / crf=18.0 / qcomp=0.60 / qpstep=4 / stats-write=0 / stats-read=0 / ipratio=1.40 / pbratio=1.30 / aq-mode=2 / aq-strength=0.00 / cutree / zone-count=0 / no-strict-cbr / qg-size=32 / no-rc-grain / qpmax=69 / qpmin=0 / no-const-vbv / sar=1 / overscan=0 / videoformat=5 / range=0 / colorprim=2 / transfer=2 / colormatrix=2 / chromaloc=0 / display-window=0 / cll=0,0 / min-luma=0 / max-luma=1023 / log2-max-poc-lsb=8 / vui-timing-info / vui-hrd-info / slices=1 / no-opt-qp-pps / no-opt-ref-list-length-pps / no-multi-pass-opt-rps / scenecut-bias=0.05 / hist-threshold=0.03 / no-opt-cu-delta-qp / no-aq-motion / no-hdr10 / no-hdr10-opt / no-dhdr10-opt / no-idr-recovery-sei / analysis-reuse-level=0 / analysis-save-reuse-level=0 / analysis-load-reuse-level=0 / scale-factor=0 / refine-intra=0 / refine-inter=0 / refine-mv=1 / refine-ctu-distortion=0 / no-limit-sao / ctu-info=0 / no-lowpass-dct / refine-analysis-type=0 / copy-pic=1 / max-ausize-factor=1.0 / no-dynamic-refine / no-single-sei / no-hevc-aq / no-svt / no-field / qp-adaptation-range=1.00 / no-scenecut-aware-qpconformance-window-offsets / right=0 / bottom=0 / decoder-max-rate=0
  22. Language                       : Chinese
  23. Default                        : Yes
  24. Forced                         : No
  25. Color range                    : Limited

  26. Audio #1
  27. ID                             : 2
  28. ID in the original source medi : 4353 (0x1101)
  29. Format                         : AC-3
  30. Format/Info                    : Audio Coding 3
  31. Commercial name                : Dolby Digital
  32. Codec ID                       : A_AC3
  33. Duration                       : 1 h 27 min
  34. Bit rate mode                  : Constant
  35. Bit rate                       : 640 kb/s
  36. Channel(s)                     : 6 channels
  37. Channel layout                 : L R C LFE Ls Rs
  38. Sampling rate                  : 48.0 kHz
  39. Frame rate                     : 31.250 FPS (1536 SPF)
  40. Compression mode               : Lossy
  41. Stream size                    : 401 MiB (9%)
  42. Title                          : 国语
  43. Language                       : Chinese
  44. Service kind                   : Complete Main
  45. Default                        : Yes
  46. Forced                         : No
  47. Original source medium         : Blu-ray

  48. Audio #2
  49. ID                             : 3
  50. ID in the original source medi : 4352 (0x1100)
  51. Format                         : AC-3
  52. Format/Info                    : Audio Coding 3
  53. Commercial name                : Dolby Digital
  54. Codec ID                       : A_AC3
  55. Duration                       : 1 h 27 min
  56. Bit rate mode                  : Constant
  57. Bit rate                       : 640 kb/s
  58. Channel(s)                     : 6 channels
  59. Channel layout                 : L R C LFE Ls Rs
  60. Sampling rate                  : 48.0 kHz
  61. Frame rate                     : 31.250 FPS (1536 SPF)
  62. Compression mode               : Lossy
  63. Stream size                    : 401 MiB (9%)
  64. Title                          : 粤语
  65. Language                       : Chinese
  66. Service kind                   : Complete Main
  67. Default                        : No
  68. Forced                         : No
  69. Original source medium         : Blu-ray

  70. Text #1
  71. ID                             : 4
  72. Format                         : ASS
  73. Codec ID                       : S_TEXT/ASS
  74. Codec ID/Info                  : Advanced Sub Station Alpha
  75. Duration                       : 1 h 25 min
  76. Bit rate                       : 147 b/s
  77. Count of elements              : 1255
  78. Compression mode               : Lossless
  79. Stream size                    : 92.3 KiB (0%)
  80. Title                          : 简体中文ASS
  81. Language                       : Chinese
  82. Default                        : Yes
  83. Forced                         : No

  84. Text #2
  85. ID                             : 5
  86. Format                         : ASS
  87. Codec ID                       : S_TEXT/ASS
  88. Codec ID/Info                  : Advanced Sub Station Alpha
  89. Duration                       : 1 h 25 min
  90. Bit rate                       : 147 b/s
  91. Count of elements              : 1255
  92. Compression mode               : Lossless
  93. Stream size                    : 92.3 KiB (0%)
  94. Title                          : 繁体中文ASS
  95. Language                       : Chinese
  96. Default                        : No
  97. Forced                         : No

  98. Text #3
  99. ID                             : 6
  100. Format                         : UTF-8
  101. Codec ID                       : S_TEXT/UTF8
  102. Codec ID/Info                  : UTF-8 Plain Text
  103. Duration                       : 1 h 25 min
  104. Bit rate                       : 53 b/s
  105. Count of elements              : 1255
  106. Stream size                    : 33.3 KiB (0%)
  107. Title                          : 简体中文SRT
  108. Language                       : Chinese
  109. Default                        : No
  110. Forced                         : No

  111. Text #4
  112. ID                             : 7
  113. Format                         : UTF-8
  114. Codec ID                       : S_TEXT/UTF8
  115. Codec ID/Info                  : UTF-8 Plain Text
  116. Duration                       : 1 h 25 min
  117. Bit rate                       : 53 b/s
  118. Count of elements              : 1255
  119. Stream size                    : 33.3 KiB (0%)
  120. Title                          : 繁体中文SRT
  121. Language                       : Chinese
  122. Default                        : No
  123. Forced                         : No

  124. Menu
  125. 00:00:00.000                   : en:第 01 章
  126. 00:06:52.500                   : en:第 02 章
  127. 00:14:13.833                   : en:第 03 章
  128. 00:19:09.083                   : en:第 04 章
  129. 00:26:35.000                   : en:第 05 章
  130. 00:35:43.750                   : en:第 06 章
  131. 00:40:54.666                   : en:第 07 章
  132. 00:51:02.500                   : en:第 08 章
  133. 00:57:53.166                   : en:第 09 章
  134. 01:06:06.500                   : en:第 10 章
  135. 01:12:13.500                   : en:第 11 章
  136. 01:20:55.083                   : en:第 12 章

复制代码


2021年12月13日更新HEVC 10Bit版本




点击进入百度网盘下载(←购买前请先验证分享链接是否有效)



此处内容付费可见

此处内容需要向楼主支付盘币或购买VIP才能显示 已有 86 人购买 

支付 5 盘币 升级VIP


该资源其他网盘分享渠道→点此了解功能详情

使用115网盘下载(来自 至尊宝c 的分享,下载需要单独支付 5 盘币)

免责申明 - 论坛版权1、本站所有资源均来自会员分享或网络收集整理,仅供会员交流学习,禁用商业用途或盈利,下载后请在24小时之内删除;
2、本站(www.pan6.com)支持正版,本资源版权归版权方所有,观看或阅读请到相应机构购买正版资源;
3、本站资源均来源于网络,本站不参与录制、上传,如本帖侵犯到任何版权问题,请立即告知本站(admin#pan6.com(#=@)),本站将及时予与删除并致以最深的歉意;
楼主热贴推荐
华语影视爱好者
BT资源无法下载:戳这里,不会发帖、金币相关等新手问题:戳这里
回复

拉黑 使用道具 举报

为保留有用回复信息,此处有 86 个购买者的感谢留言已隐藏

主题
25
活跃值
2907
热心值
12
盘币
972
注册时间
2018-5-20
最后登录
2022-1-20
在线时间
263 小时

长期在线老会员勋章阳光心情

发表于 2021-5-30 18:37:39 | 显示全部楼层
秦祥林,,,哈哈
回复

拉黑 使用道具 举报

主题
0
活跃值
573
热心值
0
盘币
1749
注册时间
2018-11-29
最后登录
2022-1-20
在线时间
149 小时
发表于 2021-5-31 06:28:57 | 显示全部楼层
谢谢分享。
回复

拉黑 使用道具 举报

主题
0
活跃值
3140
热心值
0
盘币
133
注册时间
2017-4-11
最后登录
2022-1-20
在线时间
103 小时
发表于 2021-10-31 14:00:44 | 显示全部楼层
感谢楼主的无私分享
回复

拉黑 使用道具 举报

严禁灌水、讽刺、挖苦、辱骂分享者行为。回复前请详读:点击进入 理性回复,以免永久封禁。
您需要登录后才可以回帖 登录 | 加入论坛

本版积分规则

免责声明:本站所有资源均收集自互联网,没有提供影片资源存储,也未参与录制、上传。若本站收录的资源涉及您的版权或知识产权或其他利益,请附上版权证明邮件告知,在收到邮件后24小时内删除。

Copyright © 2012 [盘乐网] 管理员邮箱:admin#pan6.com(#=@)

站长信箱|sitemap|手机版|小黑屋|百度统计|盘乐网 ( 粤ICP备18120611号 )

快速回复 返回顶部 返回列表