盘乐网

 找回密码
 加入论坛
提示:多个关键词中间加空格 例如:天龙八部 星河
楼主: 至尊宝c

[WEB-DL] [中国香港][1999][星愿][任贤齐/张柏芝/曾志伟][爱情][国粤语简繁软中字][1080P][MKV/3.06G][超清修复无水印][Netflix] 含百度网盘 含115网盘 含阿里云盘

  [复制链接]

主题
2960
活跃值
20687
热心值
2407
盘币
437467
注册时间
2018-4-7
最后登录
2021-12-3
在线时间
1697 小时

长期在线阳光心情老会员勋章鼎力支持我是土豪优秀会员普通精华热心人士爱心满满灌水之王荣誉会员资源组成员动漫达人夜猫子

发表于 2021-5-30 09:41:39 | 显示全部楼层 |阅读模式
请尊重分享者,本资源仅限交流未经楼主同意严禁转载或盈利,违者封号处理!
p2554394952_gaitubao_455x683.jpg
◎译  名 星愿 / Fly Me To Polaris / 星语心愿
◎片  名 星願
◎年  代 1999
◎产  地 中国香港
◎类  别 剧情 / 爱情 / 奇幻
◎语  言 汉语普通话/粤语
◎上映日期 1999-08-21(中国香港)
◎IMDb评分  7.1/10 from 949 users
◎IMDb链接  https://www.imdb.com/title/tt0213314
◎豆瓣评分 7.2/10 from 90258 users
◎豆瓣链接 https://movie.douban.com/subject/1294927/
◎片  长 96分钟
◎导  演 马楚成 Jingle Ma
◎编  剧 罗志良 Chi-Leung Law / 杨倩玲 Sin Ling Yeung
◎主  演 任贤齐 Richie Jen
       张柏芝 Cecilia Cheung
       苏永康 William So Wing Hong
       陈逸宁 Yat Ning Chan
       邓萃雯 Sheren Tang
       曾志伟 Eric Tsang
       葛民辉 Eric Kot
       林珊珊 Sandy Lamb
       陈宝骏 Po-Chun Chan


◎标  签 爱情 | 香港 | 张柏芝 | 香港电影 | 任贤齐 | 星愿 | 马楚成 | 电影

◎简  介  

  小时候因为脑膜炎使洋葱头(任贤齐 饰)失去视力及说话的能力,后来他一边在接受治疗一边在医院工作。他一直喜欢长期照顾他的护士秋男(张柏芝 饰),可是当时医院里的胡医生(苏永康 饰)也同时在追求秋男。洋葱头终于在一个晚上向秋男表白,秋男也接受了他的爱意。可是洋葱头在回家的路上被车撞死了,在天堂里的洋葱头祈求天使让他回到人间可以了结他与秋男的感情,可是只有5天的时间。洋葱头以保险调查员的身份接近秋男并大献殷勤,可是秋男还是无法忘记生前的洋葱头,洋葱头感动之余也使秋男逐渐发现了原来他就是洋葱头,而5天后的晚上,正是他们要再次分开的时候……

◎获奖情况  

  第36届台北金马影展(1999)
  金马奖 最佳剧情片(提名)

  第19届香港电影金像奖(2000)
  最佳电影(提名) 陈锡康
  最佳女主角(提名) 张柏芝
  最佳新演员 张柏芝
  最佳新演员(提名) 任贤齐
  最佳摄影(提名) 陈国雄 / 马楚成
  最佳原创电影音乐 金培达
  最佳原创电影歌曲 金培达 / 张柏芝
  最佳原创电影歌曲(提名) 任贤齐


◎截    图
星愿.1999.WEB.AFly Me To Polaris.2AAC.Netflix.@至尊宝.mkv_20210529_224406.906.jpg 星愿.1999.WEB.AFly Me To Polaris.2AAC.Netflix.@至尊宝.mkv_20210529_224356.102.jpg 星愿.1999.WEB.AFly Me To Polaris.2AAC.Netflix.@至尊宝.mkv_20210529_224331.619.jpg 星愿.1999.WEB.AFly Me To Polaris.2AAC.Netflix.@至尊宝.mkv_20210529_224306.916.jpg

星愿.1999.WEB.AFly Me To Polaris.2AAC.Netflix.@至尊宝.mkv.jpg
  1. Video
  2. ID                             : 1
  3. Format                         : AVC
  4. Format/Info                    : Advanced Video Codec
  5. Format profile                 : High@L4
  6. Format settings                : CABAC / 3 Ref Frames
  7. Format settings, CABAC         : Yes
  8. Format settings, Reference fra : 3 frames
  9. Codec ID                       : V_MPEG4/ISO/AVC
  10. Duration                       : 1 h 33 min
  11. Bit rate                       : 4 418 kb/s
  12. Width                          : 1 920 pixels
  13. Height                         : 1 080 pixels
  14. Display aspect ratio           : 16:9
  15. Frame rate mode                : Constant
  16. Frame rate                     : 24.000 FPS
  17. Original frame rate            : 23.976 (24000/1001) FPS
  18. Color space                    : YUV
  19. Chroma subsampling             : 4:2:0
  20. Bit depth                      : 8 bits
  21. Scan type                      : Progressive
  22. Bits/(Pixel*Frame)             : 0.089
  23. Stream size                    : 2.88 GiB (94%)
  24. Title                          : 盘乐网@至尊宝
  25. Default                        : Yes
  26. Forced                         : No

  27. Audio #1
  28. ID                             : 2
  29. Format                         : AAC LC SBR
  30. Format/Info                    : Advanced Audio Codec Low Complexity with Spectral Band Replication
  31. Commercial name                : HE-AAC
  32. Format settings                : Explicit
  33. Codec ID                       : A_AAC-2
  34. Duration                       : 1 h 33 min
  35. Bit rate                       : 128 kb/s
  36. Channel(s)                     : 2 channels
  37. Channel layout                 : L R
  38. Sampling rate                  : 48.0 kHz
  39. Frame rate                     : 23.438 FPS (2048 SPF)
  40. Compression mode               : Lossy
  41. Stream size                    : 85.3 MiB (3%)
  42. Title                          : 国语
  43. Language                       : Chinese
  44. Default                        : Yes
  45. Forced                         : No

  46. Audio #2
  47. ID                             : 3
  48. Format                         : AAC LC SBR
  49. Format/Info                    : Advanced Audio Codec Low Complexity with Spectral Band Replication
  50. Commercial name                : HE-AAC
  51. Format settings                : Explicit
  52. Codec ID                       : A_AAC-2
  53. Duration                       : 1 h 33 min
  54. Bit rate                       : 128 kb/s
  55. Channel(s)                     : 2 channels
  56. Channel layout                 : L R
  57. Sampling rate                  : 48.0 kHz
  58. Frame rate                     : 23.438 FPS (2048 SPF)
  59. Compression mode               : Lossy
  60. Stream size                    : 85.3 MiB (3%)
  61. Title                          : 粤语
  62. Language                       : Chinese
  63. Default                        : No
  64. Forced                         : No

  65. Text #1
  66. ID                             : 4
  67. Format                         : UTF-8
  68. Codec ID                       : S_TEXT/UTF8
  69. Codec ID/Info                  : UTF-8 Plain Text
  70. Duration                       : 1 h 30 min
  71. Bit rate                       : 52 b/s
  72. Count of elements              : 1369
  73. Stream size                    : 34.3 KiB (0%)
  74. Title                          : 简体
  75. Language                       : Chinese
  76. Default                        : Yes
  77. Forced                         : No

  78. Text #2
  79. ID                             : 5
  80. Format                         : UTF-8
  81. Codec ID                       : S_TEXT/UTF8
  82. Codec ID/Info                  : UTF-8 Plain Text
  83. Duration                       : 1 h 30 min
  84. Bit rate                       : 52 b/s
  85. Count of elements              : 1369
  86. Stream size                    : 34.3 KiB (0%)
  87. Title                          : 繁体
  88. Language                       : Chinese
  89. Default                        : No
  90. Forced                         : No

  91. Text #3
  92. ID                             : 6
  93. Format                         : UTF-8
  94. Codec ID                       : S_TEXT/UTF8
  95. Codec ID/Info                  : UTF-8 Plain Text
  96. Duration                       : 1 h 30 min
  97. Bit rate                       : 114 b/s
  98. Count of elements              : 1369
  99. Stream size                    : 75.8 KiB (0%)
  100. Title                          : 腾祥嘉丽中圆简体
  101. Language                       : Chinese
  102. Default                        : No
  103. Forced                         : No

  104. Text #4
  105. ID                             : 7
  106. Format                         : UTF-8
  107. Codec ID                       : S_TEXT/UTF8
  108. Codec ID/Info                  : UTF-8 Plain Text
  109. Duration                       : 1 h 30 min
  110. Bit rate                       : 114 b/s
  111. Count of elements              : 1369
  112. Stream size                    : 75.8 KiB (0%)
  113. Title                          : 腾祥嘉丽中圆繁体
  114. Language                       : Chinese
  115. Default                        : No
  116. Forced                         : No

复制代码



点击进入百度网盘下载(←购买前请先验证分享链接是否有效)


此处内容付费可见

此处内容需要向楼主支付盘币或购买VIP才能显示 已有 80 人购买 

支付 5 盘币 升级VIP


该资源其他网盘分享渠道→点此了解功能详情

使用115网盘下载(来自 至尊宝c 的分享,下载需要单独支付 5 盘币)

使用阿里云盘下载(来自 至尊宝c 的分享,下载需要单独支付 5 盘币)

免责申明 - 论坛版权1、本站所有资源均来自会员分享或网络收集整理,仅供会员交流学习,禁用商业用途或盈利,下载后请在24小时之内删除;
2、本站(www.pan6.com)支持正版,本资源版权归版权方所有,观看或阅读请到相应机构购买正版资源;
3、本站资源均来源于网络,本站不参与录制、上传,如本帖侵犯到任何版权问题,请立即告知本站(admin#pan6.com(#=@)),本站将及时予与删除并致以最深的歉意;
楼主热贴推荐
华语影视爱好者
BT资源无法下载:戳这里,不会发帖、金币相关等新手问题:戳这里
回复

拉黑 使用道具 举报

为保留有用回复信息,此处有 80 个购买者的感谢留言已隐藏

主题
198
活跃值
8174
热心值
221
盘币
4811
注册时间
2015-12-3
最后登录
2021-12-3
在线时间
1120 小时

长期在线阳光心情老会员勋章普通精华鼎力支持灌水之王热心人士爱心满满

发表于 2021-5-30 10:10:55 | 显示全部楼层
这种是后加的国语还是自带的啊
论坛的sx太多了。。。醉了。。
回复

拉黑 使用道具 举报

主题
2960
活跃值
20687
热心值
2407
盘币
437467
注册时间
2018-4-7
最后登录
2021-12-3
在线时间
1697 小时

长期在线阳光心情老会员勋章鼎力支持我是土豪优秀会员普通精华热心人士爱心满满灌水之王荣誉会员资源组成员动漫达人夜猫子

 楼主| 发表于 2021-5-30 10:12:20 | 显示全部楼层
illyd2013 发表于 2021-5-30 10:10
这种是后加的国语还是自带的啊

网飞自带的
华语影视爱好者
回复

拉黑 使用道具 举报

主题
2
活跃值
557
热心值
0
盘币
325
注册时间
2018-3-14
最后登录
2021-12-3
在线时间
89 小时
发表于 2021-5-30 10:26:57 | 显示全部楼层
谢谢分享,收下了
回复

拉黑 使用道具 举报

主题
129
活跃值
1392
热心值
185
盘币
8558
注册时间
2020-9-24
最后登录
2021-8-2
在线时间
1429 小时
发表于 2021-5-30 11:46:46 来自手机 | 显示全部楼层
115呢??
回复

拉黑 使用道具 举报

主题
2960
活跃值
20687
热心值
2407
盘币
437467
注册时间
2018-4-7
最后登录
2021-12-3
在线时间
1697 小时

长期在线阳光心情老会员勋章鼎力支持我是土豪优秀会员普通精华热心人士爱心满满灌水之王荣誉会员资源组成员动漫达人夜猫子

 楼主| 发表于 2021-5-30 11:47:18 | 显示全部楼层

还在上传中
华语影视爱好者
回复

拉黑 使用道具 举报

主题
129
活跃值
1392
热心值
185
盘币
8558
注册时间
2020-9-24
最后登录
2021-8-2
在线时间
1429 小时
发表于 2021-5-30 11:47:35 来自手机 | 显示全部楼层
至尊宝c 发表于 2021-5-30 11:47
还在上传中

好的......
回复

拉黑 使用道具 举报

主题
1
活跃值
16509
热心值
3
盘币
5964
注册时间
2014-4-29
最后登录
2021-12-3
在线时间
397 小时
发表于 2021-5-30 23:21:42 | 显示全部楼层
楼主辛苦了……
回复

拉黑 使用道具 举报

主题
2
活跃值
1438
热心值
0
盘币
419
注册时间
2018-5-20
最后登录
2021-12-3
在线时间
117 小时
发表于 2021-10-7 23:32:58 | 显示全部楼层
N年前看过粤语的,重温一下吧
回复

拉黑 使用道具 举报

主题
0
活跃值
3061
热心值
0
盘币
89
注册时间
2017-4-11
最后登录
2021-12-3
在线时间
97 小时
发表于 2021-11-17 00:38:12 | 显示全部楼层
谢谢楼主分享,赞一个~~
回复

拉黑 使用道具 举报

严禁灌水、讽刺、挖苦、辱骂分享者行为。回复前请详读:点击进入 理性回复,以免永久封禁。
您需要登录后才可以回帖 登录 | 加入论坛

本版积分规则

免责声明:本站所有资源均收集自互联网,没有提供影片资源存储,也未参与录制、上传。若本站收录的资源涉及您的版权或知识产权或其他利益,请附上版权证明邮件告知,在收到邮件后24小时内删除。

Copyright © 2012 [盘乐网] 管理员邮箱:admin#pan6.com(#=@)

站长信箱|sitemap|手机版|小黑屋|百度统计|盘乐网 ( 粤ICP备18120611号 )

快速回复 返回顶部 返回列表