盘乐网

 找回密码
 加入论坛
提示:多个关键词中间加空格 例如:天龙八部 星河
查看: 560|回复: 63

[BD-1080P] [中国香港][2003][大块头有大智慧][刘德华/张柏芝/张兆辉][剧情][国粤语简繁软中字][1080P][MKV/6.78G][港版蓝光修复无水印] 含百度网盘 含115网盘

  [复制链接]

主题
3186
活跃值
21641
热心值
2604
盘币
363708
注册时间
2018-4-7
最后登录
2022-1-21
在线时间
1797 小时

长期在线阳光心情老会员勋章鼎力支持我是土豪优秀会员普通精华热心人士爱心满满灌水之王荣誉会员资源组成员动漫达人夜猫子

发表于 2021-5-31 08:54:00 | 显示全部楼层 |阅读模式
请尊重分享者,本资源仅限交流未经楼主同意严禁转载或盈利,违者封号处理!
18781_front_gaitubao_455x596.jpg
◎译  名 大块头有大智慧 / Running on Karma / 大只佬
◎片  名 大隻佬
◎年  代 2003
◎产  地 中国香港 / 中国内地
◎类  别 剧情 / 动作 / 惊悚
◎语  言 粤语 / 英语 / 印地语
◎上映日期 2003-09-27
◎IMDb评分  6.6/10 from 2830 users
◎IMDb链接  https://www.imdb.com/title/tt0374184
◎豆瓣评分 6.7/10 from 69342 users
◎豆瓣链接 https://movie.douban.com/subject/1300359/
◎片  长 92分钟
◎导  演 杜琪峰 Johnnie To / 韦家辉 Ka-Fai Wai
◎编  剧 韦家辉 Ka-Fai Wai / 游乃海 Nai-Hoi Yau / 欧健儿 Kin-Yee Au / 叶天成 Tin-Shing Yip
◎主  演 刘德华 Andy Lau
       张柏芝 Cecilia Cheung
       张兆辉 Siu-Fai Cheung
       汤宝如 Karen Tong
       秦煌 Wong Chun
       黄华和 Wah Wo Wong
       元彬 Bun Yuen
       王文駿 Man-Chun Wong
       韩国材 Kwok Choi Hon
       黄志伟 Chi Wai Wong
       于文仲 Wenzhong Yu
       张珊萌 Shanmeng Zhang


◎标  签 杜琪峰 | 香港 | 刘德华 | 香港电影 | 张柏芝 | 动作 | 银河映像 | 2003

◎简  介  

  大隻佬(刘德华 饰)在跳艳舞时与前来扫黄的警花李凤仪(张柏芝 饰)相遇,同时,重案组亦在附近调查一起印度人杀人案。大隻佬逃跑时与逃走的印度逃犯不期而遇,最后逃犯逃走了,大隻佬被当成了嫌犯抓回了警局。其实大隻佬以前是大陆一名武僧,因好友小翠惨死,悲伤过度在树下不慎打死小鸟,对着小鸟坐禅7天7夜因而获得能看到因果的能力——看到结果时,便能看到因由。他看到了小翠的死是因果,他打死小鸟是因果,因无法平静接受这一切,他还俗了。这次,他看到了李凤仪,看到了日军在杀人,便知她罪业太重,会遭遇横祸。为了帮助这位心地善良的警花,他开始暗中帮助她,帮她屡破奇案,救她于危难,希望能帮她洗刷罪业……

◎获奖情况  

  第41届台北金马影展(2004)
  金马奖 最佳造型设计(提名) 黄家宝
  金马奖 最佳动作设计(提名) 元彬
  金马奖 最佳原创歌曲(提名) 林夕
  金马奖 最佳视觉效果(提名) 马文现

  第23届香港电影金像奖(2004)
  最佳电影
  最佳导演(提名) 杜琪峰 / 韦家辉
  最佳编剧 欧健儿 / 韦家辉 / 游乃海 / 叶天成
  最佳男主角 刘德华
  最佳女主角(提名) 张柏芝
  最佳男配角(提名) 张兆辉
  最佳剪接(提名) 罗永昌
  最佳美术指导(提名) 余家安
  最佳服装造型设计(提名) 黄家宝 / 余家安
  最佳动作设计(提名) 元彬
  最佳原创电影歌曲(提名) 黄耀明
  最佳音响效果(提名) 莫美华 / 卓保怡 / 罗柏禹
  最佳视觉效果(提名) 马文现

  第4届华语电影传媒大奖(2004)
  最受欢迎男演员 刘德华
  最佳电影(提名)
  最佳导演(提名) 杜琪峰 / 韦家辉
  最佳男主角 刘德华
  最佳女主角(提名) 张柏芝
  最佳编剧 欧健儿 / 韦家辉 / 游乃海 / 叶天成


◎截    图
大块头有大智慧.2003.BDRip.Running on Karma.HKG.2AC3.mkv_20210530_233258.520.jpg 大块头有大智慧.2003.BDRip.Running on Karma.HKG.2AC3.mkv_20210530_233238.750.jpg 大块头有大智慧.2003.BDRip.Running on Karma.HKG.2AC3.mkv_20210530_233206.783.jpg 大块头有大智慧.2003.BDRip.Running on Karma.HKG.2AC3.mkv_20210530_233158.770.jpg

大块头有大智慧.2003.BDRip.Running on Karma.HKG.2AC3.mkv.jpg
  1. Video
  2. ID                             : 1
  3. Format                         : HEVC
  4. Format/Info                    : High Efficiency Video Coding
  5. Format profile                 : Main 10@L5.1@High
  6. Codec ID                       : V_MPEGH/ISO/HEVC
  7. Duration                       : 1 h 32 min
  8. Bit rate                       : 9 191 kb/s
  9. Width                          : 1 920 pixels
  10. Height                         : 1 080 pixels
  11. Display aspect ratio           : 16:9
  12. Frame rate mode                : Constant
  13. Frame rate                     : 24.000 FPS
  14. Color space                    : YUV
  15. Chroma subsampling             : 4:2:0
  16. Bit depth                      : 10 bits
  17. Bits/(Pixel*Frame)             : 0.185
  18. Stream size                    : 5.94 GiB (88%)
  19. Title                          : 盘乐网@至尊宝
  20. Writing library                : x265 3.4+14-gd419c7152:[Windows][GCC 10.2.0][64 bit] 10bit
  21. Encoding settings              : cpuid=1111039 / frame-threads=4 / numa-pools=16 / wpp / pmode / pme / no-psnr / no-ssim / log-level=2 / input-csp=1 / input-res=1920x1080 / interlace=0 / total-frames=133306 / level-idc=51 / high-tier=1 / uhd-bd=0 / ref=5 / no-allow-non-conformance / no-repeat-headers / annexb / no-aud / no-hrd / info / hash=0 / no-temporal-layers / open-gop / min-keyint=24 / keyint=240 / gop-lookahead=0 / bframes=6 / b-adapt=2 / b-pyramid / bframe-bias=0 / rc-lookahead=40 / lookahead-slices=0 / scenecut=40 / hist-scenecut=0 / radl=0 / no-splice / no-intra-refresh / ctu=32 / min-cu-size=8 / no-rect / no-amp / max-tu-size=32 / tu-inter-depth=3 / tu-intra-depth=3 / limit-tu=4 / rdoq-level=2 / dynamic-rd=0.00 / no-ssim-rd / signhide / no-tskip / nr-intra=0 / nr-inter=0 / no-constrained-intra / no-strong-intra-smoothing / max-merge=4 / limit-refs=1 / limit-modes / me=3 / subme=4 / merange=25 / temporal-mvp / no-frame-dup / no-hme / weightp / weightb / no-analyze-src-pics / deblock=-3:-3 / no-sao / no-sao-non-deblock / rd=6 / selective-sao=0 / no-early-skip / rskip / no-fast-intra / no-tskip-fast / no-cu-lossless / b-intra / no-splitrd-skip / rdpenalty=0 / psy-rd=2.00 / psy-rdoq=1.00 / no-rd-refine / no-lossless / cbqpoffs=0 / crqpoffs=0 / rc=crf / crf=17.0 / qcomp=0.65 / qpstep=4 / stats-write=0 / stats-read=0 / vbv-maxrate=80000 / vbv-bufsize=80000 / vbv-init=0.9 / crf-max=0.0 / crf-min=0.0 / ipratio=1.40 / pbratio=1.30 / aq-mode=2 / aq-strength=0.85 / cutree / zone-count=0 / no-strict-cbr / qg-size=32 / no-rc-grain / qpmax=69 / qpmin=0 / no-const-vbv / sar=1 / overscan=0 / videoformat=5 / range=0 / colorprim=1 / transfer=1 / colormatrix=1 / chromaloc=0 / display-window=0 / cll=0,0 / min-luma=0 / max-luma=1023 / log2-max-poc-lsb=8 / vui-timing-info / vui-hrd-info / slices=1 / no-opt-qp-pps / no-opt-ref-list-length-pps / no-multi-pass-opt-rps / scenecut-bias=0.05 / hist-threshold=0.03 / no-opt-cu-delta-qp / no-aq-motion / no-hdr10 / no-hdr10-opt / no-dhdr10-opt / no-idr-recovery-sei / analysis-reuse-level=0 / analysis-save-reuse-level=0 / analysis-load-reuse-level=0 / scale-factor=0 / refine-intra=0 / refine-inter=0 / refine-mv=1 / refine-ctu-distortion=0 / no-limit-sao / ctu-info=0 / no-lowpass-dct / refine-analysis-type=0 / copy-pic=1 / max-ausize-factor=1.0 / no-dynamic-refine / no-single-sei / no-hevc-aq / no-svt / no-field / qp-adaptation-range=1.00 / no-scenecut-aware-qpconformance-window-offsets / right=0 / bottom=0 / decoder-max-rate=0
  22. Language                       : English
  23. Default                        : Yes
  24. Forced                         : No
  25. Color range                    : Limited
  26. Color primaries                : BT.709
  27. Transfer characteristics       : BT.709
  28. Matrix coefficients            : BT.709

  29. Audio #1
  30. ID                             : 2
  31. Format                         : AC-3
  32. Format/Info                    : Audio Coding 3
  33. Commercial name                : Dolby Digital
  34. Codec ID                       : A_AC3
  35. Duration                       : 1 h 32 min
  36. Bit rate mode                  : Constant
  37. Bit rate                       : 640 kb/s
  38. Channel(s)                     : 6 channels
  39. Channel layout                 : L R C LFE Ls Rs
  40. Sampling rate                  : 48.0 kHz
  41. Frame rate                     : 31.250 FPS (1536 SPF)
  42. Compression mode               : Lossy
  43. Stream size                    : 423 MiB (6%)
  44. Title                          : 国语
  45. Language                       : Chinese
  46. Service kind                   : Complete Main
  47. Default                        : Yes
  48. Forced                         : No

  49. Audio #2
  50. ID                             : 3
  51. Format                         : AC-3
  52. Format/Info                    : Audio Coding 3
  53. Commercial name                : Dolby Digital
  54. Codec ID                       : A_AC3
  55. Duration                       : 1 h 32 min
  56. Bit rate mode                  : Constant
  57. Bit rate                       : 640 kb/s
  58. Channel(s)                     : 6 channels
  59. Channel layout                 : L R C LFE Ls Rs
  60. Sampling rate                  : 48.0 kHz
  61. Frame rate                     : 31.250 FPS (1536 SPF)
  62. Compression mode               : Lossy
  63. Stream size                    : 423 MiB (6%)
  64. Title                          : 粤语
  65. Language                       : Chinese
  66. Service kind                   : Complete Main
  67. Default                        : No
  68. Forced                         : No

  69. Text #1
  70. ID                             : 4
  71. Format                         : UTF-8
  72. Codec ID                       : S_TEXT/UTF8
  73. Codec ID/Info                  : UTF-8 Plain Text
  74. Duration                       : 1 h 27 min
  75. Bit rate                       : 26 b/s
  76. Count of elements              : 714
  77. Stream size                    : 16.9 KiB (0%)
  78. Title                          : 简体
  79. Language                       : Chinese
  80. Default                        : Yes
  81. Forced                         : No

  82. Text #2
  83. ID                             : 5
  84. Format                         : UTF-8
  85. Codec ID                       : S_TEXT/UTF8
  86. Codec ID/Info                  : UTF-8 Plain Text
  87. Duration                       : 1 h 27 min
  88. Bit rate                       : 26 b/s
  89. Count of elements              : 714
  90. Stream size                    : 16.9 KiB (0%)
  91. Title                          : 繁体
  92. Language                       : Chinese
  93. Default                        : No
  94. Forced                         : No

  95. Text #3
  96. ID                             : 6
  97. Format                         : UTF-8
  98. Codec ID                       : S_TEXT/UTF8
  99. Codec ID/Info                  : UTF-8 Plain Text
  100. Duration                       : 1 h 27 min
  101. Bit rate                       : 60 b/s
  102. Count of elements              : 714
  103. Stream size                    : 38.5 KiB (0%)
  104. Title                          : 腾祥嘉丽中圆简体
  105. Language                       : Chinese
  106. Default                        : No
  107. Forced                         : No

  108. Text #4
  109. ID                             : 7
  110. Format                         : UTF-8
  111. Codec ID                       : S_TEXT/UTF8
  112. Codec ID/Info                  : UTF-8 Plain Text
  113. Duration                       : 1 h 27 min
  114. Bit rate                       : 60 b/s
  115. Count of elements              : 714
  116. Stream size                    : 38.5 KiB (0%)
  117. Title                          : 腾祥嘉丽中圆繁体
  118. Language                       : Chinese
  119. Default                        : No
  120. Forced                         : No

  121. Menu
  122. 00:00:00.000                   : en:第 01 章
  123. 00:05:41.750                   : en:第 02 章
  124. 00:09:13.708                   : en:第 03 章
  125. 00:12:13.792                   : en:第 04 章
  126. 00:16:25.458                   : en:第 05 章
  127. 00:20:27.208                   : en:第 06 章
  128. 00:26:58.208                   : en:第 07 章
  129. 00:31:41.333                   : en:第 08 章
  130. 00:35:20.958                   : en:第 09 章
  131. 00:39:10.333                   : en:第 10 章
  132. 00:41:20.708                   : en:第 11 章
  133. 00:47:01.917                   : en:第 12 章
  134. 00:52:10.083                   : en:第 13 章
  135. 00:58:20.750                   : en:第 14 章
  136. 01:02:15.125                   : en:第 15 章
  137. 01:06:51.833                   : en:第 16 章
  138. 01:11:12.208                   : en:第 17 章
  139. 01:16:42.292                   : en:第 18 章
  140. 01:21:40.042                   : en:第 19 章
  141. 01:27:31.458                   : en:第 20 章

复制代码


◎资源链接:
点击进入百度网盘下载(←购买前请先验证分享链接是否有效)


此处内容付费可见

此处内容需要向楼主支付盘币或购买VIP才能显示 已有 60 人购买 

支付 3 盘币 升级VIP


该资源其他网盘分享渠道→点此了解功能详情

使用115网盘下载(来自 至尊宝c 的分享,下载需要单独支付 3 盘币)

免责申明 - 论坛版权1、本站所有资源均来自会员分享或网络收集整理,仅供会员交流学习,禁用商业用途或盈利,下载后请在24小时之内删除;
2、本站(www.pan6.com)支持正版,本资源版权归版权方所有,观看或阅读请到相应机构购买正版资源;
3、本站资源均来源于网络,本站不参与录制、上传,如本帖侵犯到任何版权问题,请立即告知本站(admin#pan6.com(#=@)),本站将及时予与删除并致以最深的歉意;
楼主热贴推荐
华语影视爱好者
BT资源无法下载:戳这里,不会发帖、金币相关等新手问题:戳这里
回复

拉黑 使用道具 举报

为保留有用回复信息,此处有 60 个购买者的感谢留言已隐藏

主题
8
活跃值
1334
热心值
5
盘币
316
注册时间
2020-4-5
最后登录
2022-1-20
在线时间
254 小时
发表于 2021-5-31 18:03:37 | 显示全部楼层
华哥凭这部片子再次荣登香港金像奖影帝的宝座!
回复

拉黑 使用道具 举报

主题
9
活跃值
2007
热心值
0
盘币
140
注册时间
2018-2-11
最后登录
2022-1-20
在线时间
66 小时
发表于 2021-6-1 09:38:58 | 显示全部楼层
谢谢楼主分享
回复

拉黑 使用道具 举报

主题
0
活跃值
0
热心值
0
盘币
326
注册时间
2019-9-11
最后登录
2022-1-15
在线时间
45 小时
发表于 2021-7-8 16:14:16 | 显示全部楼层
请问这个资源是无删减的港版资源吗
回复

拉黑 使用道具 举报

严禁灌水、讽刺、挖苦、辱骂分享者行为。回复前请详读:点击进入 理性回复,以免永久封禁。
您需要登录后才可以回帖 登录 | 加入论坛

本版积分规则

免责声明:本站所有资源均收集自互联网,没有提供影片资源存储,也未参与录制、上传。若本站收录的资源涉及您的版权或知识产权或其他利益,请附上版权证明邮件告知,在收到邮件后24小时内删除。

Copyright © 2012 [盘乐网] 管理员邮箱:admin#pan6.com(#=@)

站长信箱|sitemap|手机版|小黑屋|百度统计|盘乐网 ( 粤ICP备18120611号 )

快速回复 返回顶部 返回列表