盘乐网

 找回密码
 加入论坛

QQ登录

只需一步,快速开始

提示:多个关键词中间加空格 例如:天龙八部 星河
查看: 448|回复: 58

[BD-1080P] [百度云+115][中国香港][1986][开心鬼撞鬼][黄百鸣/张曼玉][喜剧][国粤语简繁软中字][1080P][MKV/4.39G/7.5G][港版蓝光修复无水印][HKFACT潇湘子] 含百度网盘 含百度网盘

  [复制链接]

主题
2421
活跃值
18082
热心值
1845
盘币
296491
注册时间
2018-4-7
最后登录
2021-7-26
在线时间
1511 小时

长期在线阳光心情老会员勋章鼎力支持我是土豪优秀会员普通精华热心人士爱心满满灌水之王荣誉会员资源组成员动漫达人夜猫子

发表于 2021-6-2 20:17:24 | 显示全部楼层 |阅读模式
请尊重分享者,本资源仅限交流未经楼主同意严禁转载或盈利,违者封号处理!

◎译  名 开心鬼撞鬼 / Happy Ghost 3 / Happy Ghost III / 开心鬼3之开心鬼撞鬼
◎片  名 開心鬼撞鬼
◎年  代 1986
◎产  地 中国香港
◎类  别 喜剧 / 奇幻
◎语  言 汉语普通话/粤语
◎上映日期 1986-07-03(中国香港)
◎IMDb评分  6.1/10 from 201 users
◎IMDb链接  https://www.imdb.com/title/tt0091317
◎豆瓣评分 7.3/10 from 26158 users
◎豆瓣链接 https://movie.douban.com/subject/1306712/
◎片  长 89 分钟
◎导  演 杜琪峰 Johnnie To
◎编  剧 黄百鸣 Bak-Ming Wong
◎主  演 黄百鸣 Bak-Ming Wong
       张曼玉 Maggie Cheung
       袁洁莹 Fennie Yuen
       陈加玲 Charine Chan
       徐克 Hark Tsui
       曹查理 Charlie Cho




◎标  签 喜剧 | 香港 | 黄百鸣 | 香港电影 | 张曼玉 | 杜琪峰 | 1986 | 开心鬼撞鬼


◎简  介  


  生前是过气女歌星的女鬼徐半香(张曼玉),算准某名将要临盆的孕妇会于某间医院生产,准备投胎重新做人,不想,该孕妇被摇身变作某所高中教师的开心鬼(黄百鸣)送错医院,徐半香错过投胎时机。
  为泄心头之恨,徐半香开始想方设法捉弄开心鬼,最甚一次,她附身开心鬼班里女班长(袁洁莹),令她跑到夜总会稀里糊涂地大闹了一场,结果在该家夜总会寻欢作乐的一群流氓被抓,开心鬼受到无辜牵连,徐半香又得意又担忧之时,开心鬼却用爱来感化她,眼看皆大欢喜,出狱后的流氓不请自来。



◎截    图
開心鬼撞鬼.1986.BDRip.4AC3.HKFACT高码.mkv_20210602_204641.513.jpg 開心鬼撞鬼.1986.BDRip.4AC3.HKFACT高码.mkv_20210602_204659.438.jpg 開心鬼撞鬼.1986.BDRip.4AC3.HKFACT高码.mkv_20210602_204716.984.jpg 開心鬼撞鬼.1986.BDRip.4AC3.HKFACT高码.mkv_20210602_204739.391.jpg


開心鬼撞鬼.1986.BDRip.4AC3.HKFACT高码.mkv.jpg


  1. Video
  2. ID                             : 1
  3. Format                         : AVC
  4. Format/Info                    : Advanced Video Codec
  5. Format profile                 : High@L4.1
  6. Format settings                : CABAC / 4 Ref Frames
  7. Format settings, CABAC         : Yes
  8. Format settings, Reference fra : 4 frames
  9. Codec ID                       : V_MPEG4/ISO/AVC
  10. Duration                       : 1 h 29 min
  11. Bit rate                       : 10 000 kb/s
  12. Width                          : 1 920 pixels
  13. Height                         : 1 080 pixels
  14. Display aspect ratio           : 16:9
  15. Frame rate mode                : Constant
  16. Frame rate                     : 24.000 FPS
  17. Color space                    : YUV
  18. Chroma subsampling             : 4:2:0
  19. Bit depth                      : 8 bits
  20. Scan type                      : Progressive
  21. Bits/(Pixel*Frame)             : 0.201
  22. Stream size                    : 6.22 GiB (83%)
  23. Writing library                : x264 core 163 r3059 b684ebe
  24. Encoding settings              : cabac=1 / ref=4 / deblock=1:-3:-3 / analyse=0x3:0x113 / me=umh / subme=9 / psy=1 / psy_rd=1.00:1.00 / mixed_ref=1 / me_range=32 / chroma_me=1 / trellis=2 / 8x8dct=1 / cqm=0 / deadzone=21,11 / fast_pskip=1 / chroma_qp_offset=-10 / threads=9 / lookahead_threads=1 / sliced_threads=0 / nr=0 / decimate=1 / interlaced=0 / bluray_compat=0 / constrained_intra=0 / bframes=3 / b_pyramid=2 / b_adapt=2 / b_bias=0 / direct=3 / weightb=0 / open_gop=1 / weightp=2 / keyint=230 / keyint_min=22 / scenecut=40 / intra_refresh=0 / rc_lookahead=50 / rc=2pass / mbtree=1 / bitrate=10000 / ratetol=4.0 / qcomp=0.60 / qpmin=10 / qpmax=69 / qpstep=4 / cplxblur=20.0 / qblur=0.5 / vbv_maxrate=50000 / vbv_bufsize=50000 / nal_hrd=none / filler=0 / ip_ratio=1.40 / aq=1:1.00
  25. Language                       : Chinese
  26. Default                        : Yes
  27. Forced                         : No

  28. Audio #1
  29. ID                             : 2
  30. Format                         : AC-3
  31. Format/Info                    : Audio Coding 3
  32. Commercial name                : Dolby Digital
  33. Codec ID                       : A_AC3
  34. Duration                       : 1 h 29 min
  35. Bit rate mode                  : Constant
  36. Bit rate                       : 640 kb/s
  37. Channel(s)                     : 2 channels
  38. Channel layout                 : L R
  39. Sampling rate                  : 48.0 kHz
  40. Frame rate                     : 31.250 FPS (1536 SPF)
  41. Compression mode               : Lossy
  42. Stream size                    : 408 MiB (5%)
  43. Title                          : 國語(2.0)
  44. Language                       : Chinese
  45. Service kind                   : Complete Main
  46. Default                        : Yes
  47. Forced                         : No

  48. Audio #2
  49. ID                             : 3
  50. Format                         : AC-3
  51. Format/Info                    : Audio Coding 3
  52. Commercial name                : Dolby Digital
  53. Codec ID                       : A_AC3
  54. Duration                       : 1 h 29 min
  55. Bit rate mode                  : Constant
  56. Bit rate                       : 384 kb/s
  57. Channel(s)                     : 6 channels
  58. Channel layout                 : L R C LFE Ls Rs
  59. Sampling rate                  : 48.0 kHz
  60. Frame rate                     : 31.250 FPS (1536 SPF)
  61. Compression mode               : Lossy
  62. Stream size                    : 245 MiB (3%)
  63. Title                          : 國語(5.1)
  64. Language                       : Chinese
  65. Service kind                   : Complete Main
  66. Default                        : No
  67. Forced                         : No

  68. Audio #3
  69. ID                             : 4
  70. Format                         : AC-3
  71. Format/Info                    : Audio Coding 3
  72. Commercial name                : Dolby Digital
  73. Codec ID                       : A_AC3
  74. Duration                       : 1 h 29 min
  75. Bit rate mode                  : Constant
  76. Bit rate                       : 640 kb/s
  77. Channel(s)                     : 2 channels
  78. Channel layout                 : L R
  79. Sampling rate                  : 48.0 kHz
  80. Frame rate                     : 31.250 FPS (1536 SPF)
  81. Compression mode               : Lossy
  82. Stream size                    : 408 MiB (5%)
  83. Title                          : 粵語(2.0)
  84. Language                       : Chinese
  85. Service kind                   : Complete Main
  86. Default                        : No
  87. Forced                         : No

  88. Audio #4
  89. ID                             : 5
  90. Format                         : AC-3
  91. Format/Info                    : Audio Coding 3
  92. Commercial name                : Dolby Digital
  93. Codec ID                       : A_AC3
  94. Duration                       : 1 h 29 min
  95. Bit rate mode                  : Constant
  96. Bit rate                       : 384 kb/s
  97. Channel(s)                     : 6 channels
  98. Channel layout                 : L R C LFE Ls Rs
  99. Sampling rate                  : 48.0 kHz
  100. Frame rate                     : 31.250 FPS (1536 SPF)
  101. Compression mode               : Lossy
  102. Stream size                    : 245 MiB (3%)
  103. Title                          : 粵語(5.1)
  104. Language                       : Chinese
  105. Service kind                   : Complete Main
  106. Default                        : No
  107. Forced                         : No

  108. Text #1
  109. ID                             : 6
  110. Format                         : UTF-8
  111. Codec ID                       : S_TEXT/UTF8
  112. Codec ID/Info                  : UTF-8 Plain Text
  113. Duration                       : 1 h 26 min
  114. Bit rate                       : 53 b/s
  115. Count of elements              : 1327
  116. Stream size                    : 33.8 KiB (0%)
  117. Title                          : 簡體中文(國語)
  118. Language                       : Chinese
  119. Default                        : Yes
  120. Forced                         : No

  121. Text #2
  122. ID                             : 7
  123. Format                         : UTF-8
  124. Codec ID                       : S_TEXT/UTF8
  125. Codec ID/Info                  : UTF-8 Plain Text
  126. Duration                       : 1 h 26 min
  127. Bit rate                       : 53 b/s
  128. Count of elements              : 1327
  129. Stream size                    : 33.8 KiB (0%)
  130. Title                          : 繁體中文(國語)
  131. Language                       : Chinese
  132. Default                        : No
  133. Forced                         : No

  134. Text #3
  135. ID                             : 8
  136. Format                         : UTF-8
  137. Codec ID                       : S_TEXT/UTF8
  138. Codec ID/Info                  : UTF-8 Plain Text
  139. Duration                       : 1 h 26 min
  140. Bit rate                       : 52 b/s
  141. Count of elements              : 1353
  142. Stream size                    : 33.1 KiB (0%)
  143. Title                          : 簡體中文(粵語)
  144. Language                       : Chinese
  145. Default                        : No
  146. Forced                         : No

  147. Text #4
  148. ID                             : 9
  149. Format                         : UTF-8
  150. Codec ID                       : S_TEXT/UTF8
  151. Codec ID/Info                  : UTF-8 Plain Text
  152. Duration                       : 1 h 26 min
  153. Bit rate                       : 52 b/s
  154. Count of elements              : 1353
  155. Stream size                    : 33.1 KiB (0%)
  156. Title                          : 繁體中文(粵語)
  157. Language                       : Chinese
  158. Default                        : No
  159. Forced                         : No

复制代码


◎资源链接:
点击进入百度网盘下载(←购买前请先验证分享链接是否有效)


此处内容付费可见

此处内容需要向楼主支付盘币或购买VIP才能显示 已有 53 人购买 

支付 3 盘币 升级VIP


该资源其他网盘分享渠道→点此了解功能详情

使用115网盘下载(来自 至尊宝c 的分享,下载需要单独支付 3 盘币)

免责申明 - 论坛版权1、本站所有资源均来自会员分享或网络收集整理,仅供会员交流学习,禁用商业用途或盈利,下载后请在24小时之内删除;
2、本站(www.pan6.com)支持正版,本资源版权归版权方所有,观看或阅读请到相应机构购买正版资源;
3、本站资源均来源于网络,本站不参与录制、上传,如本帖侵犯到任何版权问题,请立即告知本站(admin#pan6.com(#=@)),本站将及时予与删除并致以最深的歉意;
楼主热贴推荐
禁止倒卖资源,资源有问题请私信
BT资源无法下载:戳这里,不会发帖、金币相关等新手问题:戳这里
回复

拉黑 使用道具 举报

为保留有用回复信息,此处有 53 个购买者的感谢留言已隐藏

主题
13
活跃值
1027
热心值
2
盘币
502
注册时间
2018-4-16
最后登录
2021-7-19
在线时间
95 小时
发表于 2021-6-2 21:23:04 | 显示全部楼层
谢谢分享潇湘子压制的蓝光电影,喜欢经典
回复

拉黑 使用道具 举报

主题
8
活跃值
231
热心值
0
盘币
169
注册时间
2019-10-2
最后登录
2021-7-26
在线时间
585 小时
发表于 2021-6-2 22:28:29 来自手机 | 显示全部楼层
这个与前两天的有啥不同吗?
回复

拉黑 使用道具 举报

主题
2421
活跃值
18082
热心值
1845
盘币
296491
注册时间
2018-4-7
最后登录
2021-7-26
在线时间
1511 小时

长期在线阳光心情老会员勋章鼎力支持我是土豪优秀会员普通精华热心人士爱心满满灌水之王荣誉会员资源组成员动漫达人夜猫子

 楼主| 发表于 2021-6-2 22:29:49 | 显示全部楼层
LTF 发表于 2021-6-2 22:28
这个与前两天的有啥不同吗?

有匹配国语的字幕,多两条2.0音轨
禁止倒卖资源,资源有问题请私信
回复

拉黑 使用道具 举报

主题
0
活跃值
0
热心值
0
盘币
430
注册时间
2019-6-30
最后登录
2021-7-21
在线时间
43 小时
发表于 2021-6-3 19:04:38 | 显示全部楼层
谢谢分享。
回复

拉黑 使用道具 举报

主题
34
活跃值
905
热心值
9
盘币
1771
注册时间
2017-10-13
最后登录
2021-7-23
在线时间
67 小时
发表于 2021-6-14 18:04:46 | 显示全部楼层
谢谢分享。请问楼主,你发的两个版本的修复,哪个画面噪点更低呀?
回复

拉黑 使用道具 举报

主题
0
活跃值
353
热心值
0
盘币
931
注册时间
2017-9-22
最后登录
2021-7-25
在线时间
130 小时
发表于 2021-6-29 21:44:12 | 显示全部楼层
谢谢分享
回复

拉黑 使用道具 举报

严禁灌水、讽刺、挖苦、辱骂分享者行为。回复前请详读:点击进入 理性回复,以免永久封禁。
您需要登录后才可以回帖 登录 | 加入论坛

本版积分规则

免责声明:本站所有资源均收集自互联网,没有提供影片资源存储,也未参与录制、上传。若本站收录的资源涉及您的版权或知识产权或其他利益,请附上版权证明邮件告知,在收到邮件后24小时内删除。

Copyright © 2012 [盘乐网] 管理员邮箱:admin#pan6.com(#=@)

站长信箱|sitemap|手机版|小黑屋|百度统计|盘乐网 ( 粤ICP备18120611号 )

快速回复 返回顶部 返回列表