盘乐网

 找回密码
 加入论坛

QQ登录

只需一步,快速开始

提示:多个关键词中间加空格 例如:天龙八部 星河
查看: 295|回复: 34

[BD-1080P] [百度云+115][中国香港][1984][缘份][张国荣/张曼玉/梅艳芳][剧情][国粤语简繁软中字][1080P][MKV/8.66G][港版蓝光修复无水印] 含百度网盘 含百度网盘

[复制链接]

主题
2207
活跃值
10236
热心值
1701
盘币
256560
注册时间
2018-4-7
最后登录
2021-6-24
在线时间
1438 小时

长期在线阳光心情老会员勋章鼎力支持我是土豪优秀会员普通精华热心人士爱心满满灌水之王荣誉会员资源组成员动漫达人夜猫子

发表于 2021-6-10 15:06:56 | 显示全部楼层 |阅读模式
请尊重分享者,本资源仅限交流未经楼主同意严禁转载或盈利,违者封号处理!
p2553889983_gaitubao_455x533.jpg
◎译  名 缘份 / Behind the Yellow Line / 缘分
◎片  名 緣份
◎年  代 1984
◎产  地 中国香港
◎类  别 剧情 / 喜剧 / 爱情
◎语  言 汉语普通话 / 粤语
◎上映日期 1984-10-03(中国香港) / 2016-03-25(中国内地)
◎IMDb评分  5.9/10 from 253 users
◎IMDb链接  https://www.imdb.com/title/tt0086950
◎豆瓣评分 7.2/10 from 22060 users
◎豆瓣链接 https://movie.douban.com/subject/1304961/
◎片  长 96分钟(中国内地)
◎导  演 黄泰来 Taylor Wong
◎编  剧 陈嘉上 Gordon Chan / 陈庆嘉 Hing-Ka Chan / 郑丹瑞 Lawrence Cheng / 石伟文 Wai-Man Sek
◎主  演 张国荣 Leslie Cheung
       张曼玉 Maggie Cheung
       梅艳芳 Anita Mui
       陈友 Anthony Chan
       汤镇宗 Chun-Chung Tong
       张坚庭 Alfred Cheung
       郑孟霞 Mengxia Zheng
       郑丹瑞 Lawrence Cheng
       叶夏利 Ha-lei Yip
       陈立品 Maria Chan
       麦当杰 Michael Mak
       邓寄尘 Kei Chan Tang
       麦洁文 Kit-Man Mak
       杨振耀 Jan Yiu Yeung
       曾道美 Do-Mei Tsang
       何永霖 Titus Ho
       施介强 Gai-Keung Si
       林伟祺 Nick Lam Wai Kei
       徐爱心 Oi Sam Tsui
       钱似莺 Tsi-Ang Chin


◎标  签 香港 | 爱情 | 哥哥 | 怀旧 | 1984 | 邵氏 | 经典 | 喜剧

◎简  介  

  在新开通的地下铁中,青年陈保罗(张国荣 饰)对同车的莫妮卡(张曼玉 饰)一见钟情,不幸却被另一名乘客安妮(梅艳芳 饰)趁机捉弄。这几位年轻人很快散落在茫茫人海中,职场新丁陈保罗开始为工作奔忙,莫妮卡则为了厘清和上司的一段旧情而心神不宁。某日,保罗与莫妮卡再次相遇,而富家小姐安妮亦再度出现,半捉弄半挑逗地缠上了保罗。莫妮卡找到新工作,遭遇了好色新领导的骚扰,保罗则在安妮的暗中帮衬下正式追求莫妮卡,与后者的好色上司连番交手。莫妮卡考虑接受保罗的爱意但终于退缩,声称将他们的爱情交付给一场地铁中的缘分游戏。在离乱的人流中,保罗和安妮一起,去找寻消失的莫妮卡……

◎获奖情况  

  第4届香港电影金像奖(1985)
  最佳男配角(提名) 陈友
  最佳女配角 梅艳芳


◎截    图
缘份.1984.BDRip.Behind the Yellow Line.HKG.2AC3.mkv_20210609_143805.592.jpg 缘份.1984.BDRip.Behind the Yellow Line.HKG.2AC3.mkv_20210609_143729.973.jpg 缘份.1984.BDRip.Behind the Yellow Line.HKG.2AC3.mkv_20210609_143824.834.jpg 缘份.1984.BDRip.Behind the Yellow Line.HKG.2AC3.mkv_20210609_143811.348.jpg

缘份.1984.BDRip.Behind the Yellow Line.HKG.2AC3.mkv.jpg

  1. Video
  2. ID                             : 1
  3. Format                         : AVC
  4. Format/Info                    : Advanced Video Codec
  5. Format profile                 : High@L4.1
  6. Format settings                : CABAC / 4 Ref Frames
  7. Format settings, CABAC         : Yes
  8. Format settings, Reference fra : 4 frames
  9. Codec ID                       : V_MPEG4/ISO/AVC
  10. Duration                       : 1 h 36 min
  11. Bit rate                       : 11.5 Mb/s
  12. Width                          : 1 920 pixels
  13. Height                         : 1 032 pixels
  14. Display aspect ratio           : 1.85:1
  15. Frame rate mode                : Constant
  16. Frame rate                     : 23.976 (24000/1001) FPS
  17. Color space                    : YUV
  18. Chroma subsampling             : 4:2:0
  19. Bit depth                      : 8 bits
  20. Scan type                      : Progressive
  21. Bits/(Pixel*Frame)             : 0.242
  22. Stream size                    : 7.78 GiB (90%)
  23. Title                          : @至尊宝
  24. Writing library                : x264 core 148 r2795M aaa9aa8
  25. Encoding settings              : cabac=1 / ref=4 / deblock=1:-2:-2 / analyse=0x3:0x113 / me=umh / subme=9 / psy=1 / psy_rd=1.00:0.15 / mixed_ref=1 / me_range=16 / chroma_me=1 / trellis=2 / 8x8dct=1 / cqm=0 / deadzone=21,11 / fast_pskip=1 / chroma_qp_offset=-3 / threads=24 / lookahead_threads=3 / sliced_threads=0 / nr=0 / decimate=1 / interlaced=0 / bluray_compat=0 / constrained_intra=0 / bframes=3 / b_pyramid=2 / b_adapt=1 / b_bias=0 / direct=3 / weightb=1 / open_gop=0 / weightp=2 / keyint=250 / keyint_min=25 / scenecut=40 / intra_refresh=0 / rc_lookahead=50 / rc=2pass / mbtree=1 / bitrate=11500 / ratetol=1.0 / qcomp=0.60 / qpmin=0 / qpmax=69 / qpstep=4 / cplxblur=20.0 / qblur=0.5 / vbv_maxrate=31250 / vbv_bufsize=31250 / nal_hrd=none / filler=0 / ip_ratio=1.40 / aq=1:1.00
  26. Language                       : Chinese
  27. Default                        : Yes
  28. Forced                         : No

  29. Audio #1
  30. ID                             : 2
  31. Format                         : AC-3
  32. Format/Info                    : Audio Coding 3
  33. Commercial name                : Dolby Digital
  34. Codec ID                       : A_AC3
  35. Duration                       : 1 h 36 min
  36. Bit rate mode                  : Constant
  37. Bit rate                       : 640 kb/s
  38. Channel(s)                     : 2 channels
  39. Channel layout                 : L R
  40. Sampling rate                  : 48.0 kHz
  41. Frame rate                     : 31.250 FPS (1536 SPF)
  42. Compression mode               : Lossy
  43. Stream size                    : 443 MiB (5%)
  44. Title                          : 国语
  45. Language                       : Chinese
  46. Service kind                   : Complete Main
  47. Default                        : Yes
  48. Forced                         : No

  49. Audio #2
  50. ID                             : 3
  51. Format                         : AC-3
  52. Format/Info                    : Audio Coding 3
  53. Commercial name                : Dolby Digital
  54. Codec ID                       : A_AC3
  55. Duration                       : 1 h 36 min
  56. Bit rate mode                  : Constant
  57. Bit rate                       : 640 kb/s
  58. Channel(s)                     : 2 channels
  59. Channel layout                 : L R
  60. Sampling rate                  : 48.0 kHz
  61. Frame rate                     : 31.250 FPS (1536 SPF)
  62. Compression mode               : Lossy
  63. Stream size                    : 443 MiB (5%)
  64. Title                          : 粤语
  65. Language                       : Chinese
  66. Service kind                   : Complete Main
  67. Default                        : No
  68. Forced                         : No

  69. Text #1
  70. ID                             : 4
  71. Format                         : UTF-8
  72. Codec ID                       : S_TEXT/UTF8
  73. Codec ID/Info                  : UTF-8 Plain Text
  74. Duration                       : 1 h 32 min
  75. Bit rate                       : 45 b/s
  76. Count of elements              : 1431
  77. Stream size                    : 31.2 KiB (0%)
  78. Title                          : 简体
  79. Language                       : Chinese
  80. Default                        : Yes
  81. Forced                         : No

  82. Text #2
  83. ID                             : 5
  84. Format                         : UTF-8
  85. Codec ID                       : S_TEXT/UTF8
  86. Codec ID/Info                  : UTF-8 Plain Text
  87. Duration                       : 1 h 32 min
  88. Bit rate                       : 45 b/s
  89. Count of elements              : 1431
  90. Stream size                    : 31.2 KiB (0%)
  91. Title                          : 繁体
  92. Language                       : Chinese
  93. Default                        : No
  94. Forced                         : No

  95. Text #3
  96. ID                             : 6
  97. Format                         : UTF-8
  98. Codec ID                       : S_TEXT/UTF8
  99. Codec ID/Info                  : UTF-8 Plain Text
  100. Duration                       : 1 h 32 min
  101. Bit rate                       : 56 b/s
  102. Count of elements              : 1426
  103. Stream size                    : 38.2 KiB (0%)
  104. Title                          : 英文
  105. Language                       : English
  106. Default                        : No
  107. Forced                         : No

  108. Text #4
  109. ID                             : 7
  110. Format                         : UTF-8
  111. Codec ID                       : S_TEXT/UTF8
  112. Codec ID/Info                  : UTF-8 Plain Text
  113. Duration                       : 1 h 32 min
  114. Bit rate                       : 109 b/s
  115. Count of elements              : 1431
  116. Stream size                    : 74.5 KiB (0%)
  117. Title                          : 腾祥嘉丽中圆简体
  118. Language                       : Chinese
  119. Default                        : No
  120. Forced                         : No

  121. Text #5
  122. ID                             : 8
  123. Format                         : UTF-8
  124. Codec ID                       : S_TEXT/UTF8
  125. Codec ID/Info                  : UTF-8 Plain Text
  126. Duration                       : 1 h 32 min
  127. Bit rate                       : 109 b/s
  128. Count of elements              : 1431
  129. Stream size                    : 74.5 KiB (0%)
  130. Title                          : 腾祥嘉丽中圆繁体
  131. Language                       : Chinese
  132. Default                        : No
  133. Forced                         : No

  134. Menu
  135. 00:00:00.000                   : en:Chapter 1
  136. 00:05:45.428                   : en:Chapter 2
  137. 00:13:39.693                   : en:Chapter 3
  138. 00:18:43.914                   : en:Chapter 4
  139. 00:26:26.418                   : en:Chapter 5
  140. 00:30:41.339                   : en:Chapter 6
  141. 00:35:02.600                   : en:Chapter 7
  142. 00:40:50.990                   : en:Chapter 8
  143. 00:46:24.031                   : en:Chapter 9
  144. 00:51:52.651                   : en:Chapter 10
  145. 00:57:09.259                   : en:Chapter 11
  146. 01:03:36.145                   : en:Chapter 12
  147. 01:09:10.479                   : en:Chapter 13
  148. 01:14:32.718                   : en:Chapter 14
  149. 01:18:17.025                   : en:Chapter 15
  150. 01:22:36.576                   : en:Chapter 16
  151. 01:27:05.303                   : en:Chapter 17
  152. 01:33:18.718                   : en:Chapter 18

复制代码



◎资源链接:
点击进入百度网盘下载(←购买前请先验证分享链接是否有效)


此处内容付费可见

此处内容需要向楼主支付盘币或购买VIP才能显示 已有 31 人购买 

支付 5 盘币 升级VIP


该资源其他网盘分享渠道→点此了解功能详情

使用115网盘下载(来自 至尊宝c 的分享,下载需要单独支付 5 盘币)

免责申明 - 论坛版权1、本站所有资源均来自会员分享或网络收集整理,仅供会员交流学习,禁用商业用途或盈利,下载后请在24小时之内删除;
2、本站(www.pan6.com)支持正版,本资源版权归版权方所有,观看或阅读请到相应机构购买正版资源;
3、本站资源均来源于网络,本站不参与录制、上传,如本帖侵犯到任何版权问题,请立即告知本站(admin#pan6.com(#=@)),本站将及时予与删除并致以最深的歉意;
楼主热贴推荐
禁止倒卖资源,资源有问题请私信
BT资源无法下载:戳这里,不会发帖、金币相关等新手问题:戳这里
回复

拉黑 使用道具 举报

为保留有用回复信息,此处有 31 个购买者的感谢留言已隐藏

主题
0
活跃值
1636
热心值
0
盘币
446
注册时间
2018-3-9
最后登录
2021-6-24
在线时间
14 小时
发表于 2021-6-11 08:39:42 | 显示全部楼层
这个是好东西啊 感谢楼主分享了先
回复

拉黑 使用道具 举报

主题
8
活跃值
207
热心值
0
盘币
321
注册时间
2019-10-2
最后登录
2021-6-24
在线时间
542 小时
发表于 2021-6-12 03:08:26 来自手机 | 显示全部楼层
手机百度网盘在线观看(1080P)怎么没声音呢?
回复

拉黑 使用道具 举报

主题
2207
活跃值
10236
热心值
1701
盘币
256560
注册时间
2018-4-7
最后登录
2021-6-24
在线时间
1438 小时

长期在线阳光心情老会员勋章鼎力支持我是土豪优秀会员普通精华热心人士爱心满满灌水之王荣誉会员资源组成员动漫达人夜猫子

 楼主| 发表于 2021-6-12 13:01:46 | 显示全部楼层
LTF 发表于 2021-6-12 03:08
手机百度网盘在线观看(1080P)怎么没声音呢?

下载到本地看,百度可能不支持这个音频解码
禁止倒卖资源,资源有问题请私信
回复

拉黑 使用道具 举报

严禁灌水、讽刺、挖苦、辱骂分享者行为。回复前请详读:点击进入 理性回复,以免永久封禁。
您需要登录后才可以回帖 登录 | 加入论坛

本版积分规则

免责声明:本站所有资源均收集自互联网,没有提供影片资源存储,也未参与录制、上传。若本站收录的资源涉及您的版权或知识产权或其他利益,请附上版权证明邮件告知,在收到邮件后24小时内删除。

Copyright © 2012 [盘乐网] 管理员邮箱:admin#pan6.com(#=@)

站长信箱|sitemap|手机版|小黑屋|百度统计|盘乐网 ( 粤ICP备18120611号 )

快速回复 返回顶部 返回列表