盘乐网

 找回密码
 加入论坛

QQ登录

只需一步,快速开始

提示:多个关键词中间加空格 例如:天龙八部 星河
查看: 345|回复: 41

[BD-1080P] [百度云+115][中国香港][1996][甜蜜蜜][黎明/张曼玉/杨恭如][爱情][国粤语简繁软中字][1080P][MKV/8.31G][港版蓝光修复无水印] 含百度网盘 含百度网盘

[复制链接]

主题
2207
活跃值
10236
热心值
1701
盘币
256543
注册时间
2018-4-7
最后登录
2021-6-24
在线时间
1438 小时

长期在线阳光心情老会员勋章鼎力支持我是土豪优秀会员普通精华热心人士爱心满满灌水之王荣誉会员资源组成员动漫达人夜猫子

发表于 2021-6-10 15:12:45 | 显示全部楼层 |阅读模式
请尊重分享者,本资源仅限交流未经楼主同意严禁转载或盈利,违者封号处理!
p2439420148_gaitubao_455x545.jpg
◎译  名 Comrades: Almost a Love Story
◎片  名 甜蜜蜜
◎年  代 1996
◎产  地 中国香港
◎类  别 剧情 / 爱情
◎语  言 粤语 / 汉语普通话 / 英语
◎上映日期 1996-11-02(中国香港) / 2015-02-13(中国内地)
◎IMDb评分  8.1/10 from 4678 users
◎IMDb链接  https://www.imdb.com/title/tt0117905
◎豆瓣评分 8.8/10 from 373344 users
◎豆瓣链接 https://movie.douban.com/subject/1305164/
◎片  长 118分钟(中国内地)
◎导  演 陈可辛 Peter Chan
◎编  剧 岸西 Ivy Ho
◎主  演 黎明 Leon Lai
       张曼玉 Maggie Cheung
       杨恭如 Kristy Yang
       曾志伟 Eric Tsang
       杜可风 Christopher Doyle
       张同祖 Tongzu Zhang
       诸慧荷 Irene Tsu Wai-Ho
       丁羽 Yu Ting


◎标  签 爱情 | 香港 | 经典 | 文艺 | 怀旧 | 浪漫 | 缘分 | 1996

◎简  介  

  改革开放初期,黎小军(黎明 饰)告别女友小婷(杨恭如 饰)从天津(国语版中为无锡)来到香港讨生活,期望有天挣到大钱把小婷接来与之风风光光地成婚,没料想日子会比想象中的难熬许多。
  黎小军在快餐店与同样从大陆到港讨生活但避讳谈自己身份的李翘(张曼玉 饰)结识后,因为共同喜爱邓丽君,两人人在异乡的孤独都有了某种程度的缓解,并在交往的过程中生出了真爱,可是世事难料,两人最终无奈分手,黎小军成了小婷的老公,李翘跟了在黑社会做事的豹哥(曾志伟 饰)。然而因为邓丽君,两人的缘分并没到此为止。

◎获奖情况  

  第34届台北金马影展(1997)
  金马奖 最佳剧情片
  金马奖 最佳女主角 张曼玉
  金马奖 最佳男配角(提名) 曾志伟
  金马奖 最佳原著剧本(提名) 岸西
  金马奖 最佳摄影(提名) 马楚成
  金马奖 最佳造型设计(提名) 吴里璐

  第16届香港电影金像奖(1997)
  最佳电影 陈可辛
  最佳导演 陈可辛
  最佳编剧 岸西
  最佳男主角(提名) 黎明
  最佳女主角 张曼玉
  最佳男配角 曾志伟
  最佳新演员(提名) 杨恭如
  最佳摄影 马楚成
  最佳美术指导 奚仲文
  最佳服装造型设计 吴里璐
  最佳原创电影音乐 赵增熹


◎截    图
甜蜜蜜.1996.BDRip.Comrades Almost a Love Story.HKG.2AC3.mkv_20210609_142338.468.jpg 甜蜜蜜.1996.BDRip.Comrades Almost a Love Story.HKG.2AC3.mkv_20210609_142330.074.jpg 甜蜜蜜.1996.BDRip.Comrades Almost a Love Story.HKG.2AC3.mkv_20210609_142415.945.jpg 甜蜜蜜.1996.BDRip.Comrades Almost a Love Story.HKG.2AC3.mkv_20210609_142432.976.jpg

甜蜜蜜.1996.BDRip.Comrades Almost a Love Story.HKG.2AC3.mkv.jpg

  1. Video
  2. ID                             : 1
  3. Format                         : AVC
  4. Format/Info                    : Advanced Video Codec
  5. Format profile                 : High@L4.1
  6. Format settings                : CABAC / 4 Ref Frames
  7. Format settings, CABAC         : Yes
  8. Format settings, Reference fra : 4 frames
  9. Codec ID                       : V_MPEG4/ISO/AVC
  10. Duration                       : 1 h 55 min
  11. Bit rate                       : 8 970 kb/s
  12. Width                          : 1 920 pixels
  13. Height                         : 1 036 pixels
  14. Display aspect ratio           : 1.85:1
  15. Frame rate mode                : Constant
  16. Frame rate                     : 24.000 FPS
  17. Color space                    : YUV
  18. Chroma subsampling             : 4:2:0
  19. Bit depth                      : 8 bits
  20. Scan type                      : Progressive
  21. Bits/(Pixel*Frame)             : 0.188
  22. Stream size                    : 7.26 GiB (87%)
  23. Title                          : 盘乐网@至尊宝
  24. Writing library                : x264 core 146 r2538 121396c
  25. Encoding settings              : cabac=1 / ref=4 / deblock=1:-3:-3 / analyse=0x3:0x133 / me=umh / subme=11 / psy=1 / psy_rd=1.00:0.00 / mixed_ref=1 / me_range=48 / chroma_me=1 / trellis=2 / 8x8dct=1 / cqm=0 / deadzone=21,11 / fast_pskip=0 / chroma_qp_offset=-2 / threads=12 / lookahead_threads=1 / sliced_threads=0 / nr=0 / decimate=1 / interlaced=0 / bluray_compat=0 / constrained_intra=0 / bframes=6 / b_pyramid=2 / b_adapt=2 / b_bias=0 / direct=1 / weightb=1 / open_gop=0 / weightp=2 / keyint=240 / keyint_min=22 / scenecut=40 / intra_refresh=0 / rc_lookahead=60 / rc=2pass / mbtree=1 / bitrate=8970 / ratetol=1.0 / qcomp=0.60 / qpmin=0 / qpmax=69 / qpstep=4 / cplxblur=20.0 / qblur=0.5 / vbv_maxrate=62500 / vbv_bufsize=78125 / nal_hrd=none / filler=0 / ip_ratio=1.40 / aq=1:1.00
  26. Language                       : Chinese
  27. Default                        : Yes
  28. Forced                         : No

  29. Audio #1
  30. ID                             : 2
  31. Format                         : AC-3
  32. Format/Info                    : Audio Coding 3
  33. Commercial name                : Dolby Digital
  34. Codec ID                       : A_AC3
  35. Duration                       : 1 h 55 min
  36. Bit rate mode                  : Constant
  37. Bit rate                       : 640 kb/s
  38. Channel(s)                     : 2 channels
  39. Channel layout                 : L R
  40. Sampling rate                  : 48.0 kHz
  41. Frame rate                     : 31.250 FPS (1536 SPF)
  42. Compression mode               : Lossy
  43. Stream size                    : 531 MiB (6%)
  44. Title                          : 国语
  45. Language                       : Chinese
  46. Service kind                   : Complete Main
  47. Default                        : Yes
  48. Forced                         : No

  49. Audio #2
  50. ID                             : 3
  51. Format                         : AC-3
  52. Format/Info                    : Audio Coding 3
  53. Commercial name                : Dolby Digital
  54. Codec ID                       : A_AC3
  55. Duration                       : 1 h 55 min
  56. Bit rate mode                  : Constant
  57. Bit rate                       : 640 kb/s
  58. Channel(s)                     : 6 channels
  59. Channel layout                 : L R C LFE Ls Rs
  60. Sampling rate                  : 48.0 kHz
  61. Frame rate                     : 31.250 FPS (1536 SPF)
  62. Compression mode               : Lossy
  63. Stream size                    : 531 MiB (6%)
  64. Title                          : 粤语
  65. Language                       : Chinese
  66. Service kind                   : Complete Main
  67. Default                        : No
  68. Forced                         : No

  69. Text #1
  70. ID                             : 4
  71. Format                         : UTF-8
  72. Codec ID                       : S_TEXT/UTF8
  73. Codec ID/Info                  : UTF-8 Plain Text
  74. Duration                       : 1 h 52 min
  75. Bit rate                       : 37 b/s
  76. Count of elements              : 1392
  77. Stream size                    : 31.2 KiB (0%)
  78. Title                          : 简体
  79. Language                       : Chinese
  80. Default                        : Yes
  81. Forced                         : No

  82. Text #2
  83. ID                             : 5
  84. Format                         : UTF-8
  85. Codec ID                       : S_TEXT/UTF8
  86. Codec ID/Info                  : UTF-8 Plain Text
  87. Duration                       : 1 h 52 min
  88. Bit rate                       : 37 b/s
  89. Count of elements              : 1392
  90. Stream size                    : 31.2 KiB (0%)
  91. Title                          : 繁体
  92. Language                       : Chinese
  93. Default                        : No
  94. Forced                         : No

  95. Text #3
  96. ID                             : 6
  97. Format                         : UTF-8
  98. Codec ID                       : S_TEXT/UTF8
  99. Codec ID/Info                  : UTF-8 Plain Text
  100. Duration                       : 1 h 52 min
  101. Bit rate                       : 89 b/s
  102. Count of elements              : 1392
  103. Stream size                    : 73.4 KiB (0%)
  104. Title                          : 腾祥嘉丽中圆简体
  105. Language                       : Chinese
  106. Default                        : No
  107. Forced                         : No

  108. Text #4
  109. ID                             : 7
  110. Format                         : UTF-8
  111. Codec ID                       : S_TEXT/UTF8
  112. Codec ID/Info                  : UTF-8 Plain Text
  113. Duration                       : 1 h 52 min
  114. Bit rate                       : 89 b/s
  115. Count of elements              : 1392
  116. Stream size                    : 73.4 KiB (0%)
  117. Title                          : 腾祥嘉丽中圆繁体
  118. Language                       : Chinese
  119. Default                        : No
  120. Forced                         : No

复制代码



◎资源链接:
点击进入百度网盘下载(←购买前请先验证分享链接是否有效)


此处内容付费可见

此处内容需要向楼主支付盘币或购买VIP才能显示 已有 41 人购买 

支付 5 盘币 升级VIP


该资源其他网盘分享渠道→点此了解功能详情

使用115网盘下载(来自 至尊宝c 的分享,下载需要单独支付 5 盘币)

免责申明 - 论坛版权1、本站所有资源均来自会员分享或网络收集整理,仅供会员交流学习,禁用商业用途或盈利,下载后请在24小时之内删除;
2、本站(www.pan6.com)支持正版,本资源版权归版权方所有,观看或阅读请到相应机构购买正版资源;
3、本站资源均来源于网络,本站不参与录制、上传,如本帖侵犯到任何版权问题,请立即告知本站(admin#pan6.com(#=@)),本站将及时予与删除并致以最深的歉意;

点赞

参与人数 1热心值 +1

给力资源,感谢分享! + 1

查看点赞详情

楼主热贴推荐
禁止倒卖资源,资源有问题请私信
BT资源无法下载:戳这里,不会发帖、金币相关等新手问题:戳这里
回复

拉黑 使用道具 举报

为保留有用回复信息,此处有 41 个购买者的感谢留言已隐藏
严禁灌水、讽刺、挖苦、辱骂分享者行为。回复前请详读:点击进入 理性回复,以免永久封禁。
您需要登录后才可以回帖 登录 | 加入论坛

本版积分规则

免责声明:本站所有资源均收集自互联网,没有提供影片资源存储,也未参与录制、上传。若本站收录的资源涉及您的版权或知识产权或其他利益,请附上版权证明邮件告知,在收到邮件后24小时内删除。

Copyright © 2012 [盘乐网] 管理员邮箱:admin#pan6.com(#=@)

站长信箱|sitemap|手机版|小黑屋|百度统计|盘乐网 ( 粤ICP备18120611号 )

快速回复 返回顶部 返回列表