盘乐网

 找回密码
 加入论坛

QQ登录

只需一步,快速开始

提示:多个关键词中间加空格 例如:天龙八部 星河
查看: 279|回复: 21

[BD-1080P] [百度云+115][中国香港][1997][香港制造][李灿森/严栩慈/李栋全][剧情][粤语简繁软中字][1080P][MKV/7.7G][港版4K蓝光修复无水印] 含百度网盘 含百度网盘

[复制链接]

主题
2207
活跃值
10236
热心值
1701
盘币
256525
注册时间
2018-4-7
最后登录
2021-6-24
在线时间
1438 小时

长期在线阳光心情老会员勋章鼎力支持我是土豪优秀会员普通精华热心人士爱心满满灌水之王荣誉会员资源组成员动漫达人夜猫子

发表于 2021-6-10 15:19:21 | 显示全部楼层 |阅读模式
请尊重分享者,本资源仅限交流未经楼主同意严禁转载或盈利,违者封号处理!
p2520517372_gaitubao_455x567.jpg
◎译  名 Made in Hong Kong
◎片  名 香港制造
◎年  代 1997
◎产  地 中国香港
◎类  别 剧情 / 喜剧 / 爱情 / 犯罪
◎语  言 粤语
◎上映日期 1997-10-09
◎IMDb评分  7.5/10 from 1918 users
◎IMDb链接  https://www.imdb.com/title/tt0123328
◎豆瓣评分 8.2/10 from 33306 users
◎豆瓣链接 https://movie.douban.com/subject/1292396/
◎片  长 108 分钟
◎导  演 陈果 Fruit Chan
◎编  剧 陈果 Fruit Chan
◎主  演 李璨琛 Sam Lee
       严栩慈 Neiky Yim Hui-Chi
       李栋全 Wenders Li
       谭嘉荃 Amy Tam Ka-Chuen
       林洁芳 Carol Lam Kit-Fong
       陈达义 Tat-Yee Chan


◎标  签 陈果 | 香港 | 香港电影 | 李灿森 | 青春 | 文艺 | 1997 | 香港制造

◎简  介  

  有惨淡家境的香港街头小混混中秋(李灿森)虽对未来迷茫,为人却很豪爽讲义气,将总被人欺负的弱智男孩阿龙(李栋泉)当作自己的亲人“罩”着,可是在他被仇家捅成重伤躺在医院时,老大派去运毒的阿龙被人打死。
  而另外两个与他的生命有过交叉的少女——留下两封遗书跳楼自杀的女中学生 阿珊(谭嘉荃)、他爱上的等不到合适肾源医治绝症的濒死少女阿屏(严栩慈)——的“命中注定”,则加重了他青春的绝望。他能走的路,似乎只有听天由命。

◎获奖情况  

  第34届台北金马影展(1997)
  金马奖 最佳剧情片(提名)
  金马奖 最佳导演 陈果
  金马奖 最佳男主角(提名) 李灿森
  金马奖 最佳原著剧本 陈果
  金马奖 最佳剪辑(提名) 陈果

  第17届香港电影金像奖(1998)
  最佳电影 刘德华
  最佳导演 陈果
  最佳编剧(提名) 陈果
  最佳新演员 李灿森
  最佳剪接(提名) 陈果

  第2届釜山国际电影节(1997)
  新浪潮奖(提名) 陈果
  国际影评人协会奖 陈果



◎截    图
香港制造.1997.BDRip.Made in Hong Kong.HKG.AC3.mkv_20210609_142743.684.jpg 香港制造.1997.BDRip.Made in Hong Kong.HKG.AC3.mkv_20210609_142729.052.jpg 香港制造.1997.BDRip.Made in Hong Kong.HKG.AC3.mkv_20210609_142757.532.jpg 香港制造.1997.BDRip.Made in Hong Kong.HKG.AC3.mkv_20210609_142820.059.jpg

香港制造.1997.BDRip.Made in Hong Kong.HKG.AC3.mkv.jpg

  1. Video
  2. ID                             : 1
  3. Format                         : AVC
  4. Format/Info                    : Advanced Video Codec
  5. Format profile                 : High@L4.1
  6. Format settings                : CABAC / 4 Ref Frames
  7. Format settings, CABAC         : Yes
  8. Format settings, Reference fra : 4 frames
  9. Codec ID                       : V_MPEG4/ISO/AVC
  10. Duration                       : 1 h 49 min
  11. Bit rate                       : 9 418 kb/s
  12. Width                          : 1 920 pixels
  13. Height                         : 1 040 pixels
  14. Display aspect ratio           : 1.85:1
  15. Frame rate mode                : Constant
  16. Frame rate                     : 24.000 FPS
  17. Color space                    : YUV
  18. Chroma subsampling             : 4:2:0
  19. Bit depth                      : 8 bits
  20. Scan type                      : Progressive
  21. Bits/(Pixel*Frame)             : 0.197
  22. Stream size                    : 7.19 GiB (93%)
  23. Title                          : 盘乐网@至尊宝
  24. Writing library                : x264 core 157 r2935 545de2f
  25. Encoding settings              : cabac=1 / ref=4 / deblock=1:-3:-3 / analyse=0x3:0x133 / me=umh / subme=9 / psy=1 / psy_rd=1.00:0.00 / mixed_ref=1 / me_range=16 / chroma_me=1 / trellis=2 / 8x8dct=1 / cqm=0 / deadzone=21,11 / fast_pskip=0 / chroma_qp_offset=-2 / threads=24 / lookahead_threads=2 / sliced_threads=0 / nr=0 / decimate=1 / interlaced=0 / bluray_compat=0 / constrained_intra=0 / bframes=3 / b_pyramid=2 / b_adapt=1 / b_bias=0 / direct=3 / weightb=1 / open_gop=0 / weightp=2 / keyint=240 / keyint_min=24 / scenecut=40 / intra_refresh=0 / rc_lookahead=50 / rc=2pass / mbtree=1 / bitrate=9418 / ratetol=1.0 / qcomp=0.60 / qpmin=0 / qpmax=69 / qpstep=4 / cplxblur=20.0 / qblur=0.5 / ip_ratio=1.40 / aq=1:1.00
  26. Language                       : English
  27. Default                        : Yes
  28. Forced                         : No

  29. Audio
  30. ID                             : 2
  31. Format                         : AC-3
  32. Format/Info                    : Audio Coding 3
  33. Commercial name                : Dolby Digital
  34. Codec ID                       : A_AC3
  35. Duration                       : 1 h 49 min
  36. Bit rate mode                  : Constant
  37. Bit rate                       : 640 kb/s
  38. Channel(s)                     : 2 channels
  39. Channel layout                 : L R
  40. Sampling rate                  : 48.0 kHz
  41. Frame rate                     : 31.250 FPS (1536 SPF)
  42. Compression mode               : Lossy
  43. Stream size                    : 501 MiB (6%)
  44. Title                          : 粤语
  45. Language                       : Chinese
  46. Service kind                   : Complete Main
  47. Default                        : Yes
  48. Forced                         : No

  49. Text #1
  50. ID                             : 3
  51. Format                         : UTF-8
  52. Codec ID                       : S_TEXT/UTF8
  53. Codec ID/Info                  : UTF-8 Plain Text
  54. Duration                       : 1 h 47 min
  55. Bit rate                       : 47 b/s
  56. Count of elements              : 1409
  57. Stream size                    : 37.4 KiB (0%)
  58. Title                          : 简体
  59. Language                       : Chinese
  60. Default                        : Yes
  61. Forced                         : No

  62. Text #2
  63. ID                             : 4
  64. Format                         : UTF-8
  65. Codec ID                       : S_TEXT/UTF8
  66. Codec ID/Info                  : UTF-8 Plain Text
  67. Duration                       : 1 h 47 min
  68. Bit rate                       : 47 b/s
  69. Count of elements              : 1409
  70. Stream size                    : 37.4 KiB (0%)
  71. Title                          : 繁体
  72. Language                       : Chinese
  73. Default                        : No
  74. Forced                         : No

  75. Text #3
  76. ID                             : 5
  77. Format                         : UTF-8
  78. Codec ID                       : S_TEXT/UTF8
  79. Codec ID/Info                  : UTF-8 Plain Text
  80. Duration                       : 1 h 46 min
  81. Bit rate                       : 51 b/s
  82. Count of elements              : 1404
  83. Stream size                    : 40.7 KiB (0%)
  84. Title                          : 英文
  85. Language                       : English
  86. Default                        : No
  87. Forced                         : Yes

  88. Text #4
  89. ID                             : 6
  90. Format                         : UTF-8
  91. Codec ID                       : S_TEXT/UTF8
  92. Codec ID/Info                  : UTF-8 Plain Text
  93. Duration                       : 1 h 47 min
  94. Bit rate                       : 101 b/s
  95. Count of elements              : 1409
  96. Stream size                    : 80.1 KiB (0%)
  97. Title                          : 腾祥嘉丽中圆简体
  98. Language                       : Chinese
  99. Default                        : No
  100. Forced                         : No

  101. Text #5
  102. ID                             : 7
  103. Format                         : UTF-8
  104. Codec ID                       : S_TEXT/UTF8
  105. Codec ID/Info                  : UTF-8 Plain Text
  106. Duration                       : 1 h 47 min
  107. Bit rate                       : 101 b/s
  108. Count of elements              : 1409
  109. Stream size                    : 80.1 KiB (0%)
  110. Title                          : 腾祥嘉丽中圆繁体
  111. Language                       : Chinese
  112. Default                        : No
  113. Forced                         : No

  114. Menu
  115. 00:00:00.000                   : en:00:00:00.000
  116. 00:09:05.125                   : en:00:09:05.125
  117. 00:17:42.542                   : en:00:17:42.542
  118. 00:27:37.458                   : en:00:27:37.458
  119. 00:37:28.375                   : en:00:37:28.375
  120. 00:44:59.542                   : en:00:44:59.542
  121. 00:56:13.875                   : en:00:56:13.875
  122. 01:03:58.000                   : en:01:03:58.000
  123. 01:12:33.833                   : en:01:12:33.833
  124. 01:21:10.625                   : en:01:21:10.625
  125. 01:31:39.667                   : en:01:31:39.667
  126. 01:40:06.333                   : en:01:40:06.333

复制代码



◎资源链接:
点击进入百度网盘下载(←购买前请先验证分享链接是否有效)


此处内容付费可见

此处内容需要向楼主支付盘币或购买VIP才能显示 已有 20 人购买 

支付 5 盘币 升级VIP


该资源其他网盘分享渠道→点此了解功能详情

使用115网盘下载(来自 至尊宝c 的分享,下载需要单独支付 5 盘币)

免责申明 - 论坛版权1、本站所有资源均来自会员分享或网络收集整理,仅供会员交流学习,禁用商业用途或盈利,下载后请在24小时之内删除;
2、本站(www.pan6.com)支持正版,本资源版权归版权方所有,观看或阅读请到相应机构购买正版资源;
3、本站资源均来源于网络,本站不参与录制、上传,如本帖侵犯到任何版权问题,请立即告知本站(admin#pan6.com(#=@)),本站将及时予与删除并致以最深的歉意;
楼主热贴推荐
禁止倒卖资源,资源有问题请私信
BT资源无法下载:戳这里,不会发帖、金币相关等新手问题:戳这里
回复

拉黑 使用道具 举报

为保留有用回复信息,此处有 20 个购买者的感谢留言已隐藏

主题
50
活跃值
2908
热心值
33
盘币
158
注册时间
2017-6-3
最后登录
2021-6-23
在线时间
433 小时
发表于 2021-6-11 09:01:45 | 显示全部楼层
陈果导演的片子不错
回复

拉黑 使用道具 举报

严禁灌水、讽刺、挖苦、辱骂分享者行为。回复前请详读:点击进入 理性回复,以免永久封禁。
您需要登录后才可以回帖 登录 | 加入论坛

本版积分规则

免责声明:本站所有资源均收集自互联网,没有提供影片资源存储,也未参与录制、上传。若本站收录的资源涉及您的版权或知识产权或其他利益,请附上版权证明邮件告知,在收到邮件后24小时内删除。

Copyright © 2012 [盘乐网] 管理员邮箱:admin#pan6.com(#=@)

站长信箱|sitemap|手机版|小黑屋|百度统计|盘乐网 ( 粤ICP备18120611号 )

快速回复 返回顶部 返回列表