盘乐网

 找回密码
 加入论坛

QQ登录

只需一步,快速开始

提示:多个关键词中间加空格 例如:天龙八部 星河
查看: 129|回复: 12

[BD-1080P] [百度云+115][法国][1965][狂人皮埃罗][让-保罗·贝尔蒙多/安娜·卡里娜][犯罪][法语简繁软中字][1080P][MKV/10.06G][CC版蓝光修复无水印] 含百度网盘 含百度网盘

[复制链接]

主题
2207
活跃值
10236
热心值
1701
盘币
256602
注册时间
2018-4-7
最后登录
2021-6-24
在线时间
1438 小时

长期在线阳光心情老会员勋章鼎力支持我是土豪优秀会员普通精华热心人士爱心满满灌水之王荣誉会员资源组成员动漫达人夜猫子

发表于 2021-6-10 15:24:46 | 显示全部楼层 |阅读模式
请尊重分享者,本资源仅限交流未经楼主同意严禁转载或盈利,违者封号处理!
6097daca56699c2cf41807834081c516f2992f5c_gaitubao_455x574.jpg
◎译  名 狂人皮埃罗 / Crazy Pete / Pierrot Goes Wild / 狂人彼埃洛(港) / 狂人比埃洛 / 狂人皮埃洛
◎片  名 Pierrot le fou
◎年  代 1965
◎产  地 法国 / 意大利
◎类  别 剧情 / 爱情 / 犯罪
◎语  言 法语 / 英语 / 意大利语
◎上映日期 1965-08-29(威尼斯电影节) / 1965-11-05(法国)
◎IMDb评分  7.6/10 from 29718 users
◎IMDb链接  https://www.imdb.com/title/tt0059592
◎豆瓣评分 8.3/10 from 19991 users
◎豆瓣链接 https://movie.douban.com/subject/1292533/
◎片  长 110分钟
◎导  演 让-吕克·戈达尔 Jean-Luc Godard
◎编  剧 让-吕克·戈达尔 Jean-Luc Godard
◎主  演 让-保罗·贝尔蒙多 Jean-Paul Belmondo
       安娜·卡里娜 Anna Karina
       贾泽拉·加瓦尼 Graziella Galvani
       克丽斯塔·妮尔 Krista Nell
       让-皮埃尔·利奥德 Jean-Pierre Léaud
       塞缪尔·富勒 Samuel Fuller


◎标  签 法国 | 新浪潮 | 1965 | 爱情 | 犯罪 | 文艺 | 意大利 | 剧情

◎简  介  

  费迪南德(让-保罗·贝尔蒙多 Jean Paul Belmondo 饰)经受着一段糟糕的婚姻,又不幸被公司开除。他在一个无趣的聚会上遇见前女友玛丽安娜(安娜·卡里娜 Anna Karina 饰),重燃旧情。厌烦一切的他决定抛妻弃子同她一起逃离。他跟着玛丽安娜去了她的公寓 ,发现一具尸体,接着很快发现她正在被黑帮追杀。在相处期间,玛丽安娜给费迪南德取了个昵称:皮埃罗。他们开车奔向南方,一路上疯狂抢杀。当他们到了法国,两人关系开始紧张。皮埃罗不再读书、思考、写日记,玛丽安娜也厌倦了这种生活,坚持要回城里。他们在一个夜店里遇到黑帮,混乱中两人失散了。皮埃罗疯狂寻找玛丽安娜,两人最终重聚。玛丽安娜利用皮埃罗得到一箱钱,之后逃走去找自己真正的男友——之前她多次提到的哥哥。皮埃罗开枪打死玛丽安娜和她的男友,将自己的脸涂成蓝色,身上绑上炸药。最后一秒,他后悔了,试图摁灭导火索,但是失败了,炸药砰地一声爆炸了。本片获得1965年威尼斯电影节金狮奖提名。

◎获奖情况  

  第26届威尼斯电影节(1965)
  主竞赛单元 金狮奖 (提名) 让-吕克·戈达尔


◎截    图
狂人皮埃罗.1965.BDRip.Pierrot Goes Wild.CC.AC3.mkv_20210609_142220.152.jpg 狂人皮埃罗.1965.BDRip.Pierrot Goes Wild.CC.AC3.mkv_20210609_142211.694.jpg 狂人皮埃罗.1965.BDRip.Pierrot Goes Wild.CC.AC3.mkv_20210609_142223.936.jpg 狂人皮埃罗.1965.BDRip.Pierrot Goes Wild.CC.AC3.mkv_20210609_142232.636.jpg

狂人皮埃罗.1965.BDRip.Pierrot Goes Wild.CC.AC3.mkv.jpg

  1. Video
  2. ID                             : 1
  3. Format                         : AVC
  4. Format/Info                    : Advanced Video Codec
  5. Format profile                 : High@L4.1
  6. Format settings                : CABAC / 4 Ref Frames
  7. Format settings, CABAC         : Yes
  8. Format settings, Reference fra : 4 frames
  9. Codec ID                       : V_MPEG4/ISO/AVC
  10. Duration                       : 1 h 50 min
  11. Bit rate                       : 12.3 Mb/s
  12. Width                          : 1 920 pixels
  13. Height                         : 1 080 pixels
  14. Display aspect ratio           : 16:9
  15. Frame rate mode                : Constant
  16. Frame rate                     : 23.976 (24000/1001) FPS
  17. Color space                    : YUV
  18. Chroma subsampling             : 4:2:0
  19. Bit depth                      : 8 bits
  20. Scan type                      : Progressive
  21. Bits/(Pixel*Frame)             : 0.248
  22. Stream size                    : 9.55 GiB (95%)
  23. Title                          : @至尊宝
  24. Writing library                : x264 core 157 r2969 d4099dd
  25. Encoding settings              : cabac=1 / ref=4 / deblock=1:-3:-3 / analyse=0x3:0x133 / me=umh / subme=11 / psy=1 / psy_rd=1.00:0.00 / mixed_ref=1 / me_range=32 / chroma_me=1 / trellis=2 / 8x8dct=1 / cqm=0 / deadzone=21,11 / fast_pskip=0 / chroma_qp_offset=-2 / threads=16 / lookahead_threads=2 / sliced_threads=0 / nr=0 / decimate=1 / interlaced=0 / bluray_compat=0 / constrained_intra=0 / bframes=8 / b_pyramid=2 / b_adapt=2 / b_bias=0 / direct=1 / weightb=1 / open_gop=0 / weightp=2 / keyint=240 / keyint_min=22 / scenecut=40 / intra_refresh=0 / rc_lookahead=60 / rc=2pass / mbtree=1 / bitrate=12334 / ratetol=1.0 / qcomp=0.60 / qpmin=0 / qpmax=69 / qpstep=4 / cplxblur=20.0 / qblur=0.5 / vbv_maxrate=50000 / vbv_bufsize=50000 / nal_hrd=none / filler=0 / ip_ratio=1.40 / aq=1:1.00
  26. Language                       : French
  27. Default                        : Yes
  28. Forced                         : No

  29. Audio
  30. ID                             : 2
  31. Format                         : AC-3
  32. Format/Info                    : Audio Coding 3
  33. Commercial name                : Dolby Digital
  34. Codec ID                       : A_AC3
  35. Duration                       : 1 h 50 min
  36. Bit rate mode                  : Constant
  37. Bit rate                       : 640 kb/s
  38. Channel(s)                     : 1 channel
  39. Channel layout                 : C
  40. Sampling rate                  : 48.0 kHz
  41. Frame rate                     : 31.250 FPS (1536 SPF)
  42. Compression mode               : Lossy
  43. Stream size                    : 507 MiB (5%)
  44. Title                          : 法语
  45. Language                       : French
  46. Service kind                   : Complete Main
  47. Default                        : Yes
  48. Forced                         : No

  49. Text #1
  50. ID                             : 3
  51. Format                         : UTF-8
  52. Codec ID                       : S_TEXT/UTF8
  53. Codec ID/Info                  : UTF-8 Plain Text
  54. Duration                       : 1 h 48 min
  55. Bit rate                       : 41 b/s
  56. Count of elements              : 1225
  57. Stream size                    : 32.7 KiB (0%)
  58. Title                          : 简体
  59. Language                       : Chinese
  60. Default                        : Yes
  61. Forced                         : No

  62. Text #2
  63. ID                             : 4
  64. Format                         : UTF-8
  65. Codec ID                       : S_TEXT/UTF8
  66. Codec ID/Info                  : UTF-8 Plain Text
  67. Duration                       : 1 h 48 min
  68. Bit rate                       : 41 b/s
  69. Count of elements              : 1225
  70. Stream size                    : 32.7 KiB (0%)
  71. Title                          : 繁体
  72. Language                       : Chinese
  73. Default                        : No
  74. Forced                         : No

  75. Text #3
  76. ID                             : 5
  77. Format                         : UTF-8
  78. Codec ID                       : S_TEXT/UTF8
  79. Codec ID/Info                  : UTF-8 Plain Text
  80. Duration                       : 1 h 48 min
  81. Bit rate                       : 88 b/s
  82. Count of elements              : 1225
  83. Stream size                    : 69.8 KiB (0%)
  84. Title                          : 腾祥嘉丽中圆简体
  85. Language                       : Chinese
  86. Default                        : No
  87. Forced                         : No

  88. Text #4
  89. ID                             : 6
  90. Format                         : UTF-8
  91. Codec ID                       : S_TEXT/UTF8
  92. Codec ID/Info                  : UTF-8 Plain Text
  93. Duration                       : 1 h 48 min
  94. Bit rate                       : 88 b/s
  95. Count of elements              : 1225
  96. Stream size                    : 69.8 KiB (0%)
  97. Title                          : 腾祥嘉丽中圆繁体
  98. Language                       : Chinese
  99. Default                        : No
  100. Forced                         : No

复制代码



◎资源链接:
点击进入百度网盘下载(←购买前请先验证分享链接是否有效)


此处内容付费可见

此处内容需要向楼主支付盘币或购买VIP才能显示 已有 12 人购买 

支付 5 盘币 升级VIP


该资源其他网盘分享渠道→点此了解功能详情

使用115网盘下载(来自 至尊宝c 的分享,下载需要单独支付 5 盘币)

免责申明 - 论坛版权1、本站所有资源均来自会员分享或网络收集整理,仅供会员交流学习,禁用商业用途或盈利,下载后请在24小时之内删除;
2、本站(www.pan6.com)支持正版,本资源版权归版权方所有,观看或阅读请到相应机构购买正版资源;
3、本站资源均来源于网络,本站不参与录制、上传,如本帖侵犯到任何版权问题,请立即告知本站(admin#pan6.com(#=@)),本站将及时予与删除并致以最深的歉意;
楼主热贴推荐
禁止倒卖资源,资源有问题请私信
BT资源无法下载:戳这里,不会发帖、金币相关等新手问题:戳这里
回复

拉黑 使用道具 举报

为保留有用回复信息,此处有 12 个购买者的感谢留言已隐藏
严禁灌水、讽刺、挖苦、辱骂分享者行为。回复前请详读:点击进入 理性回复,以免永久封禁。
您需要登录后才可以回帖 登录 | 加入论坛

本版积分规则

免责声明:本站所有资源均收集自互联网,没有提供影片资源存储,也未参与录制、上传。若本站收录的资源涉及您的版权或知识产权或其他利益,请附上版权证明邮件告知,在收到邮件后24小时内删除。

Copyright © 2012 [盘乐网] 管理员邮箱:admin#pan6.com(#=@)

站长信箱|sitemap|手机版|小黑屋|百度统计|盘乐网 ( 粤ICP备18120611号 )

快速回复 返回顶部 返回列表