盘乐网

 找回密码
 加入论坛

QQ登录

只需一步,快速开始

提示:多个关键词中间加空格 例如:天龙八部 星河
查看: 374|回复: 39

[BD-1080P] [百度云+115][中国香港][1998][行运一条龙][周星驰/郑秋文/吴孟达][喜剧][国粤语简繁软中字][1080P][MKV/9.08G][港版蓝光修复无水印] 含百度网盘 含百度网盘

[复制链接]

主题
2207
活跃值
10236
热心值
1701
盘币
256545
注册时间
2018-4-7
最后登录
2021-6-24
在线时间
1438 小时

长期在线阳光心情老会员勋章鼎力支持我是土豪优秀会员普通精华热心人士爱心满满灌水之王荣誉会员资源组成员动漫达人夜猫子

发表于 2021-6-10 15:37:06 | 显示全部楼层 |阅读模式
请尊重分享者,本资源仅限交流未经楼主同意严禁转载或盈利,违者封号处理!
p2546733798_gaitubao_455x568.jpg
◎译  名 行运一条龙 / The Lucky Guy
◎片  名 行運一條龍
◎年  代 1998
◎产  地 中国香港
◎类  别 剧情 / 喜剧 / 爱情
◎语  言 汉语普通话/粤语
◎上映日期 1998-01-05(中国香港)
◎IMDb评分  6.2/10 from 970 users
◎IMDb链接  https://www.imdb.com/title/tt0138587
◎豆瓣评分 6.8/10 from 47940 users
◎豆瓣链接 https://movie.douban.com/subject/1299550/
◎片  长 99分钟
◎导  演 李力持 Lik-Chi Lee
◎编  剧 李力持 Lik-Chi Lee / 郑文辉 Man-Fai Cheng
◎主  演 周星驰 Stephen Chow
       葛民辉 Eric Kot
       陈晓东 Daniel Chan Hiu Tung
       郑秀文 Sammi Cheng
       杨恭如 Kristy Yang
       舒淇 Qi Shu
       吴孟达 Man Tat Ng
       李兆基 Siu-Kei Lee
       田启文 Kai Man Tin
       陈彦行 Joyce Chan
       谷德昭 Vincent Kok
       吴君如 Sandra Ng
       叶竞生 Bobby Yip Kin Sang
       王书麒 Jimmy Wong Shu-Kei
       黄美棋 Maggie Wong
       曾近荣 Kan-Wing Tsang
       郑文辉 Man-Fai Cheng
       郑祖 Joe Cheng
       林雪 Suet Lam
       何华超 Tony Ho
       金刚 Kong Kam
       王晶 Jing Wong
       胡立成 Licheng Hu
       黄一飞 Yut Fei Wong
       戴龙 Lung Dai


◎标  签 周星驰 | 喜剧 | 香港 | 香港电影 | 郑秀文 | 搞笑 | 1998 | 李力持

◎简  介  

  行运茶餐厅餐厅老板(吴孟达 饰)每天都乐于在茶餐厅中忙前忙后,他的儿子阿男(陈晓东 饰)却非常嫌弃,一次他在遇到了离家出走的富家女芳芳(舒淇 饰),芳芳还跟了他回家,父亲以为他们是男女朋友的关系。此时,阿福(葛文辉 饰)送外卖时遇到了Fanny(杨恭如 饰),便向何金水(周星驰 饰)这位情圣请教,可是何金水也遇上了当年的初恋情人Cindy(郑秀文 饰),Cindy借故报复当年的恩怨,令何金水患得患失。茶餐厅被勒令收回,全茶餐厅的人都决定要抵抗到底……


◎截    图
行运一条龙.1998.BDRip.The Lucky Guy.HKG.2AC3.mkv_20210610_141611.775.jpg 行运一条龙.1998.BDRip.The Lucky Guy.HKG.2AC3.mkv_20210610_141542.190.jpg 行运一条龙.1998.BDRip.The Lucky Guy.HKG.2AC3.mkv_20210610_141529.901.jpg 行运一条龙.1998.BDRip.The Lucky Guy.HKG.2AC3.mkv_20210610_141522.017.jpg

行运一条龙.1998.BDRip.The Lucky Guy.HKG.2AC3.mkv.jpg
  1. Video
  2. ID                             : 1
  3. Format                         : AVC
  4. Format/Info                    : Advanced Video Codec
  5. Format profile                 : High@L4.1
  6. Format settings                : CABAC / 4 Ref Frames
  7. Format settings, CABAC         : Yes
  8. Format settings, Reference fra : 4 frames
  9. Codec ID                       : V_MPEG4/ISO/AVC
  10. Duration                       : 1 h 39 min
  11. Bit rate                       : 11.7 Mb/s
  12. Width                          : 1 920 pixels
  13. Height                         : 1 080 pixels
  14. Display aspect ratio           : 16:9
  15. Frame rate mode                : Constant
  16. Frame rate                     : 24.000 FPS
  17. Color space                    : YUV
  18. Chroma subsampling             : 4:2:0
  19. Bit depth                      : 8 bits
  20. Scan type                      : Progressive
  21. Bits/(Pixel*Frame)             : 0.236
  22. Stream size                    : 8.17 GiB (90%)
  23. Title                          : 盘乐网@至尊宝
  24. Writing library                : x264 core 157 r2867+150 7e91e0e t_mod_Custom_2 [8-bit@all X86_64]
  25. Encoding settings              : cabac=1 / ref=4 / deblock=1:-3:-3 / analyse=0x3:0x133 / me=umh / subme=10 / psy=1 / fade_compensate=0.00 / psy_rd=0.95:0.10 / mixed_ref=1 / me_range=48 / chroma_me=1 / trellis=2 / 8x8dct=1 / cqm=0 / deadzone=21,11 / fast_pskip=0 / chroma_qp_offset=-4 / threads=34 / lookahead_threads=5 / sliced_threads=0 / nr=0 / decimate=1 / interlaced=0 / bluray_compat=0 / constrained_intra=0 / fgo=0 / bframes=8 / b_pyramid=2 / b_adapt=2 / b_bias=0 / direct=3 / weightb=1 / open_gop=0 / weightp=2 / keyint=250 / keyint_min=24 / scenecut=40 / intra_refresh=0 / rc_lookahead=60 / rc=crf / mbtree=0 / crf=23.5000 / qcomp=0.70 / qpmin=0:0:0 / qpmax=69:69:69 / qpstep=4 / vbv_maxrate=35000 / vbv_bufsize=35000 / crf_max=0.0 / nal_hrd=none / filler=0 / ip_ratio=1.40 / pb_ratio=1.30 / aq=3:1.00 / aq-sensitivity=10.00 / aq-factor=1.00:1.00:1.00 / aq2=0 / aq3=2:[0.50:0.50]:[0.50:0.50]:[0.50:0.50]:[0.50:0.50] / aq3-sensitivity=10.00 / aq3-factor=[1.00:1.00]:[1.00:1.00]:[1.00:1.00] / aq3-boundary=192:64:24
  26. Language                       : Chinese
  27. Default                        : Yes
  28. Forced                         : No

  29. Audio #1
  30. ID                             : 2
  31. Format                         : AC-3
  32. Format/Info                    : Audio Coding 3
  33. Commercial name                : Dolby Digital
  34. Codec ID                       : A_AC3
  35. Duration                       : 1 h 39 min
  36. Bit rate mode                  : Constant
  37. Bit rate                       : 640 kb/s
  38. Channel(s)                     : 6 channels
  39. Channel layout                 : L R C LFE Ls Rs
  40. Sampling rate                  : 48.0 kHz
  41. Frame rate                     : 31.250 FPS (1536 SPF)
  42. Compression mode               : Lossy
  43. Stream size                    : 456 MiB (5%)
  44. Title                          : 国语
  45. Language                       : Chinese
  46. Service kind                   : Complete Main
  47. Default                        : Yes
  48. Forced                         : No

  49. Audio #2
  50. ID                             : 3
  51. Format                         : AC-3
  52. Format/Info                    : Audio Coding 3
  53. Commercial name                : Dolby Digital
  54. Codec ID                       : A_AC3
  55. Duration                       : 1 h 39 min
  56. Bit rate mode                  : Constant
  57. Bit rate                       : 640 kb/s
  58. Channel(s)                     : 6 channels
  59. Channel layout                 : L R C LFE Ls Rs
  60. Sampling rate                  : 48.0 kHz
  61. Frame rate                     : 31.250 FPS (1536 SPF)
  62. Compression mode               : Lossy
  63. Stream size                    : 456 MiB (5%)
  64. Title                          : 粤语
  65. Language                       : Chinese
  66. Service kind                   : Complete Main
  67. Default                        : No
  68. Forced                         : No

  69. Text #1
  70. ID                             : 4
  71. Format                         : UTF-8
  72. Codec ID                       : S_TEXT/UTF8
  73. Codec ID/Info                  : UTF-8 Plain Text
  74. Duration                       : 1 h 35 min
  75. Bit rate                       : 69 b/s
  76. Count of elements              : 1636
  77. Stream size                    : 48.2 KiB (0%)
  78. Title                          : 简体
  79. Language                       : Chinese
  80. Default                        : Yes
  81. Forced                         : No

  82. Text #2
  83. ID                             : 5
  84. Format                         : UTF-8
  85. Codec ID                       : S_TEXT/UTF8
  86. Codec ID/Info                  : UTF-8 Plain Text
  87. Duration                       : 1 h 35 min
  88. Bit rate                       : 69 b/s
  89. Count of elements              : 1636
  90. Stream size                    : 48.2 KiB (0%)
  91. Title                          : 繁体
  92. Language                       : Chinese
  93. Default                        : No
  94. Forced                         : No

  95. Text #3
  96. ID                             : 6
  97. Format                         : UTF-8
  98. Codec ID                       : S_TEXT/UTF8
  99. Codec ID/Info                  : UTF-8 Plain Text
  100. Duration                       : 1 h 35 min
  101. Bit rate                       : 73 b/s
  102. Count of elements              : 1579
  103. Stream size                    : 50.9 KiB (0%)
  104. Title                          : 英文
  105. Language                       : English
  106. Default                        : No
  107. Forced                         : No

  108. Text #4
  109. ID                             : 7
  110. Format                         : UTF-8
  111. Codec ID                       : S_TEXT/UTF8
  112. Codec ID/Info                  : UTF-8 Plain Text
  113. Duration                       : 1 h 35 min
  114. Bit rate                       : 140 b/s
  115. Count of elements              : 1636
  116. Stream size                    : 97.7 KiB (0%)
  117. Title                          : 腾祥嘉丽中圆简体
  118. Language                       : Chinese
  119. Default                        : No
  120. Forced                         : No

  121. Text #5
  122. ID                             : 8
  123. Format                         : UTF-8
  124. Codec ID                       : S_TEXT/UTF8
  125. Codec ID/Info                  : UTF-8 Plain Text
  126. Duration                       : 1 h 35 min
  127. Bit rate                       : 140 b/s
  128. Count of elements              : 1636
  129. Stream size                    : 97.7 KiB (0%)
  130. Title                          : 腾祥嘉丽中圆繁体
  131. Language                       : Chinese
  132. Default                        : No
  133. Forced                         : No

  134. Menu
  135. 00:00:00.000                   : en:第 01 章
  136. 00:09:24.292                   : en:第 02 章
  137. 00:15:03.083                   : en:第 03 章
  138. 00:26:06.792                   : en:第 04 章
  139. 00:33:05.000                   : en:第 05 章
  140. 00:39:55.750                   : en:第 06 章
  141. 00:46:27.292                   : en:第 07 章
  142. 00:52:48.250                   : en:第 08 章
  143. 00:59:11.375                   : en:第 09 章
  144. 01:10:48.292                   : en:第 10 章
  145. 01:18:41.792                   : en:第 11 章
  146. 01:28:14.167                   : en:第 12 章

复制代码


◎资源链接:
点击进入百度网盘下载(←购买前请先验证分享链接是否有效)


此处内容付费可见

此处内容需要向楼主支付盘币或购买VIP才能显示 已有 36 人购买 

支付 5 盘币 升级VIP


该资源其他网盘分享渠道→点此了解功能详情

使用115网盘下载(来自 至尊宝c 的分享,下载需要单独支付 5 盘币)

免责申明 - 论坛版权1、本站所有资源均来自会员分享或网络收集整理,仅供会员交流学习,禁用商业用途或盈利,下载后请在24小时之内删除;
2、本站(www.pan6.com)支持正版,本资源版权归版权方所有,观看或阅读请到相应机构购买正版资源;
3、本站资源均来源于网络,本站不参与录制、上传,如本帖侵犯到任何版权问题,请立即告知本站(admin#pan6.com(#=@)),本站将及时予与删除并致以最深的歉意;
楼主热贴推荐
禁止倒卖资源,资源有问题请私信
BT资源无法下载:戳这里,不会发帖、金币相关等新手问题:戳这里
回复

拉黑 使用道具 举报

为保留有用回复信息,此处有 36 个购买者的感谢留言已隐藏

主题
0
活跃值
1636
热心值
0
盘币
446
注册时间
2018-3-9
最后登录
2021-6-24
在线时间
14 小时
发表于 2021-6-11 08:40:53 | 显示全部楼层
这个是好东西啊 感谢楼主分享了先
回复

拉黑 使用道具 举报

主题
0
活跃值
343
热心值
0
盘币
67
注册时间
2017-12-3
最后登录
2021-6-23
在线时间
20 小时
发表于 2021-6-11 10:36:45 | 显示全部楼层
谢谢分享
回复

拉黑 使用道具 举报

主题
1
活跃值
1527
热心值
0
盘币
15
注册时间
2018-9-22
最后登录
2021-6-22
在线时间
44 小时

老会员勋章超级VIP

发表于 2021-6-11 12:34:30 来自手机 | 显示全部楼层
不错 谢谢分享了哈哈
回复

拉黑 使用道具 举报

严禁灌水、讽刺、挖苦、辱骂分享者行为。回复前请详读:点击进入 理性回复,以免永久封禁。
您需要登录后才可以回帖 登录 | 加入论坛

本版积分规则

免责声明:本站所有资源均收集自互联网,没有提供影片资源存储,也未参与录制、上传。若本站收录的资源涉及您的版权或知识产权或其他利益,请附上版权证明邮件告知,在收到邮件后24小时内删除。

Copyright © 2012 [盘乐网] 管理员邮箱:admin#pan6.com(#=@)

站长信箱|sitemap|手机版|小黑屋|百度统计|盘乐网 ( 粤ICP备18120611号 )

快速回复 返回顶部 返回列表