盘乐网

 找回密码
 加入论坛

QQ登录

只需一步,快速开始

提示:多个关键词中间加空格 例如:天龙八部 星河
查看: 301|回复: 21

[BD-1080P] [百度云+115][中国台湾][1987][尼罗河女儿][杨林/杨帆/高捷][剧情][国语简繁软中字][1080P][MKV/9.67G][英版4K蓝光修复无水印] 含百度网盘 含百度网盘

[复制链接]

主题
2207
活跃值
10236
热心值
1701
盘币
256537
注册时间
2018-4-7
最后登录
2021-6-24
在线时间
1438 小时

长期在线阳光心情老会员勋章鼎力支持我是土豪优秀会员普通精华热心人士爱心满满灌水之王荣誉会员资源组成员动漫达人夜猫子

发表于 2021-6-10 16:23:21 | 显示全部楼层 |阅读模式
请尊重分享者,本资源仅限交流未经楼主同意严禁转载或盈利,违者封号处理!
p2438354556_gaitubao_455x588.jpg
◎译  名 尼罗河女儿 / Daughter of the Nile◎片  名 尼羅河女兒
◎年  代 1987
◎产  地 中国台湾
◎类  别 剧情
◎语  言 汉语普通话
◎上映日期 1987-08-22(中国台湾) / 2017-09-23(中国台湾重映)
◎IMDb评分  7.1/10 from 691 users
◎IMDb链接  https://www.imdb.com/title/tt0093633
◎豆瓣评分 7.1/10 from 2514 users
◎豆瓣链接 https://movie.douban.com/subject/1296055/
◎片  长 91分钟
◎导  演 侯孝贤 Hsiao-hsien Hou
◎编  剧 朱天文 Tien-wen Chu
◎主  演 高捷 Jack Kao
       李天禄 Tianlu Li
       崔福生 Fu Sheng Tsui
       辛树芬 Shu-fen Hsin
       杨林 Diana Yang
       杨帆 Fan Yang
       蔡灿得 Vega Tsai
       陈淑芳 Shu-Fang Chen


◎标  签 侯孝贤 | 台湾 | 台湾电影 | 朱天文 | 1987 | 侯孝賢 | 吴念真 | 高捷

◎简  介  

  少女林晓阳(杨林 饰)爱看漫画,常幻想自己是细川智荣子少女漫画《尼罗河女儿》主角。她生活在繁华的台北,白天在肯德基当店员,晚上在夜校读书。晓阳与家人住在一座简陋的平房里,祖父(李天禄 饰)是个风趣的老头。父亲(崔福生 饰)在嘉义当员警,常年在外执勤。母亲去世后,晓阳肩负起母亲的职责,照顾上了年纪的父亲及上学的妹妹,并整天为哥哥担心。哥哥(高捷 饰)与朋友合开一家餐厅,白天工作,晚上当小偷,却能照顾到家人。父亲和哥哥爆发冲突时,晓阳总是站在哥哥一边。她暗恋上哥哥的朋友阿三,却不知阿三爱着别人。种种事实让她感到气愤、悲伤和绝望,并在遭受打击后成熟清醒。

◎获奖情况  

  第24届台北金马影展(1987)
  金马奖 最佳原创配乐 张弘毅

◎截    图
尼罗河女儿.1987.BDRip.Daughter of the Nile.GBR.AC3.mkv_20210610_141305.841.jpg 尼罗河女儿.1987.BDRip.Daughter of the Nile.GBR.AC3.mkv_20210610_141255.030.jpg 尼罗河女儿.1987.BDRip.Daughter of the Nile.GBR.AC3.mkv_20210610_141350.142.jpg 尼罗河女儿.1987.BDRip.Daughter of the Nile.GBR.AC3.mkv_20210610_141313.870.jpg

尼罗河女儿.1987.BDRip.Daughter of the Nile.GBR.AC3.mkv.jpg

  1. Video
  2. ID                             : 1
  3. Format                         : AVC
  4. Format/Info                    : Advanced Video Codec
  5. Format profile                 : High@L4.1
  6. Format settings                : CABAC / 4 Ref Frames
  7. Format settings, CABAC         : Yes
  8. Format settings, Reference fra : 4 frames
  9. Codec ID                       : V_MPEG4/ISO/AVC
  10. Duration                       : 1 h 32 min
  11. Bit rate                       : 14.3 Mb/s
  12. Width                          : 1 920 pixels
  13. Height                         : 1 040 pixels
  14. Display aspect ratio           : 1.85:1
  15. Frame rate mode                : Constant
  16. Frame rate                     : 23.976 (24000/1001) FPS
  17. Color space                    : YUV
  18. Chroma subsampling             : 4:2:0
  19. Bit depth                      : 8 bits
  20. Scan type                      : Progressive
  21. Bits/(Pixel*Frame)             : 0.298
  22. Stream size                    : 9.24 GiB (96%)
  23. Title                          : @至尊宝
  24. Writing library                : x264 core 142 r2431 ac76440
  25. Encoding settings              : cabac=1 / ref=4 / deblock=1:-3:-3 / analyse=0x3:0x133 / me=umh / subme=11 / psy=1 / psy_rd=1.00:0.00 / mixed_ref=1 / me_range=32 / chroma_me=1 / trellis=2 / 8x8dct=1 / cqm=0 / deadzone=21,11 / fast_pskip=0 / chroma_qp_offset=-2 / threads=12 / lookahead_threads=1 / sliced_threads=0 / nr=0 / decimate=1 / interlaced=0 / bluray_compat=0 / constrained_intra=0 / bframes=6 / b_pyramid=2 / b_adapt=2 / b_bias=0 / direct=1 / weightb=1 / open_gop=0 / weightp=2 / keyint=240 / keyint_min=22 / scenecut=40 / intra_refresh=0 / rc_lookahead=50 / rc=2pass / mbtree=1 / bitrate=14263 / ratetol=1.0 / qcomp=0.60 / qpmin=0 / qpmax=69 / qpstep=4 / cplxblur=20.0 / qblur=0.5 / vbv_maxrate=50000 / vbv_bufsize=50000 / nal_hrd=none / filler=0 / ip_ratio=1.40 / aq=1:1.00
  26. Language                       : Chinese
  27. Default                        : Yes
  28. Forced                         : No

  29. Audio
  30. ID                             : 2
  31. Format                         : AC-3
  32. Format/Info                    : Audio Coding 3
  33. Commercial name                : Dolby Digital
  34. Codec ID                       : A_AC3
  35. Duration                       : 1 h 32 min
  36. Bit rate mode                  : Constant
  37. Bit rate                       : 640 kb/s
  38. Channel(s)                     : 1 channel
  39. Channel layout                 : C
  40. Sampling rate                  : 48.0 kHz
  41. Frame rate                     : 31.250 FPS (1536 SPF)
  42. Compression mode               : Lossy
  43. Stream size                    : 425 MiB (4%)
  44. Title                          : 国语
  45. Language                       : Chinese
  46. Service kind                   : Complete Main
  47. Default                        : Yes
  48. Forced                         : No

  49. Text #1
  50. ID                             : 3
  51. Format                         : UTF-8
  52. Codec ID                       : S_TEXT/UTF8
  53. Codec ID/Info                  : UTF-8 Plain Text
  54. Duration                       : 1 h 31 min
  55. Bit rate                       : 23 b/s
  56. Count of elements              : 747
  57. Stream size                    : 15.8 KiB (0%)
  58. Title                          : 简体
  59. Language                       : Chinese
  60. Default                        : Yes
  61. Forced                         : No

  62. Text #2
  63. ID                             : 4
  64. Format                         : UTF-8
  65. Codec ID                       : S_TEXT/UTF8
  66. Codec ID/Info                  : UTF-8 Plain Text
  67. Duration                       : 1 h 31 min
  68. Bit rate                       : 23 b/s
  69. Count of elements              : 747
  70. Stream size                    : 15.8 KiB (0%)
  71. Title                          : 繁体
  72. Language                       : Chinese
  73. Default                        : No
  74. Forced                         : No

  75. Text #3
  76. ID                             : 5
  77. Format                         : UTF-8
  78. Codec ID                       : S_TEXT/UTF8
  79. Codec ID/Info                  : UTF-8 Plain Text
  80. Duration                       : 1 h 31 min
  81. Bit rate                       : 57 b/s
  82. Count of elements              : 747
  83. Stream size                    : 38.4 KiB (0%)
  84. Title                          : 腾祥嘉丽中圆简体
  85. Language                       : Chinese
  86. Default                        : No
  87. Forced                         : No

  88. Text #4
  89. ID                             : 6
  90. Format                         : UTF-8
  91. Codec ID                       : S_TEXT/UTF8
  92. Codec ID/Info                  : UTF-8 Plain Text
  93. Duration                       : 1 h 31 min
  94. Bit rate                       : 57 b/s
  95. Count of elements              : 747
  96. Stream size                    : 38.4 KiB (0%)
  97. Title                          : 腾祥嘉丽中圆繁体
  98. Language                       : Chinese
  99. Default                        : No
  100. Forced                         : No

复制代码


◎资源链接:
点击进入百度网盘下载(←购买前请先验证分享链接是否有效)


此处内容付费可见

此处内容需要向楼主支付盘币或购买VIP才能显示 已有 20 人购买 

支付 5 盘币 升级VIP


该资源其他网盘分享渠道→点此了解功能详情

使用115网盘下载(来自 至尊宝c 的分享,下载需要单独支付 5 盘币)

免责申明 - 论坛版权1、本站所有资源均来自会员分享或网络收集整理,仅供会员交流学习,禁用商业用途或盈利,下载后请在24小时之内删除;
2、本站(www.pan6.com)支持正版,本资源版权归版权方所有,观看或阅读请到相应机构购买正版资源;
3、本站资源均来源于网络,本站不参与录制、上传,如本帖侵犯到任何版权问题,请立即告知本站(admin#pan6.com(#=@)),本站将及时予与删除并致以最深的歉意;
楼主热贴推荐
禁止倒卖资源,资源有问题请私信
BT资源无法下载:戳这里,不会发帖、金币相关等新手问题:戳这里
回复

拉黑 使用道具 举报

为保留有用回复信息,此处有 20 个购买者的感谢留言已隐藏

主题
50
活跃值
2908
热心值
33
盘币
158
注册时间
2017-6-3
最后登录
2021-6-23
在线时间
433 小时
发表于 2021-6-11 08:43:54 | 显示全部楼层
侯孝贤的每一部电影都很棒!
回复

拉黑 使用道具 举报

严禁灌水、讽刺、挖苦、辱骂分享者行为。回复前请详读:点击进入 理性回复,以免永久封禁。
您需要登录后才可以回帖 登录 | 加入论坛

本版积分规则

免责声明:本站所有资源均收集自互联网,没有提供影片资源存储,也未参与录制、上传。若本站收录的资源涉及您的版权或知识产权或其他利益,请附上版权证明邮件告知,在收到邮件后24小时内删除。

Copyright © 2012 [盘乐网] 管理员邮箱:admin#pan6.com(#=@)

站长信箱|sitemap|手机版|小黑屋|百度统计|盘乐网 ( 粤ICP备18120611号 )

快速回复 返回顶部 返回列表