盘乐网

 找回密码
 加入论坛
提示:多个关键词中间加空格 例如:天龙八部 星河
楼主: 至尊宝c

[WEB-DL] [中国香港][1994][中南海保镖][李连杰/钟丽缇/郑则仕][犯罪][国粤英语简繁软中字][1080P][MKV/5.4G][超清修复无水印][itunes] 含百度网盘 含115网盘

  [复制链接]

主题
3188
活跃值
21649
热心值
2627
盘币
363317
注册时间
2018-4-7
最后登录
2022-1-26
在线时间
1797 小时

长期在线阳光心情老会员勋章鼎力支持我是土豪优秀会员普通精华热心人士爱心满满灌水之王荣誉会员资源组成员动漫达人夜猫子

发表于 2021-6-15 17:56:12 | 显示全部楼层 |阅读模式
请尊重分享者,本资源仅限交流未经楼主同意严禁转载或盈利,违者封号处理!
p1397968890_gaitubao_455x667.jpg
◎译  名 中南海保镖 / The Bodyguard from Beijing / The Defender
◎片  名 中南海保镳
◎年  代 1994
◎产  地 中国香港
◎类  别 剧情 / 动作
◎语  言 汉语普通话/粤语
◎上映日期 1994-07-28(中国香港)
◎IMDb评星  ★★★★★★✦☆☆☆
◎IMDb评分  6.5/10 from 5,094 users
◎IMDb链接  https://www.imdb.com/title/tt0111835/
◎豆瓣评星 ★★★★☆
◎豆瓣评分 7.7/10 from 89,698 users
◎豆瓣链接 https://movie.douban.com/subject/1297068/
◎片  长 93分钟
◎导  演 元奎 / Corey Yuen
◎演  员 李连杰 / Jet Li | 饰 许正阳
      钟丽缇 / Christy Chung | 饰 杨倩儿
      郑则仕 / Kent Cheng | 饰 梁鉴波
      邹兆龙 / Collin Chou | 饰 王建军
      梁荣忠 / Wing-Chung Leung | 饰 阿强
      黄锦江 / Kam-Kong Wong | 饰 赵国明
      元奎 / Corey Yuen | 饰 商场顾客
      伍卫国 / Wai-Kwok Ng | 饰 宋世昌
      Tom Konkle Tom Konkle
      约翰·德米塔 / John DeMita
      Arianna Ratner Arianna Ratner
      Dean Scofield Dean Scofield
      迈克尔·索里奇 / Michael Sorich
      基思·弗格森 / Keith Ferguson
      江苗定 / Miu Ting Kong
      秦贵宝 / Kwai Po Chun
◎编  剧 陈嘉上 / Gordon Chan
      陈建忠 / John Chan Kin-Chung
◎制  片  人 李连杰 / Jet Li
      朱嘉懿 / Julia Chu
◎音  乐 胡伟立 / Wai Lap Wu
◎摄  影 刘满棠 / Moon-Tong Lau
◎剪  辑 林安儿 / Angie Lam
◎美  术 莫少奇 / Jason Mok
◎服  装 陈顾方 / Shirley Chan
◎化  妆 文润铃 / Yun-Ling Man
◎副  导  演 黎继强 / Kai Keung Lai
◎动作特技 元奎 / Corey Yuen
      江苗定 / Miu Ting Kong
      元德 / Tak Yuen
◎其  它 黄华和 / Wah Wo Wong
      朱威廉 / William Chu
      黄凯森 / Kaisen Huang

◎标  签 李连杰 | 动作 | 香港 | 香港电影 | 中南海保镖 | 爱情 | 1994 | 钟丽缇

◎简  介 

  香港地区一起杀人案的唯一目击证人Michelle(钟丽缇 饰)正被杀手追杀,因为其未婚夫是与大陆高层关系密切的富商,身手不凡的中国特警许正阳(李连杰 饰)便被中央委派去香港保护Michelle。
  两人初接触时互看两生厌,但慢慢都发现了对方的优点并产生了感情,然而因为身 份和工作性质,许正阳尽量将感情压抑,却免不了在刻意回避时患得患失,就在两人感觉无从择决时,一个异常危险的杀手悄悄靠近了他们。

◎获奖情况 

  第14届香港电影金像奖 (1995)
  最佳动作设计(提名) 元德,元奎

◎台词金句

  好功夫是没有用的,感情这种事啊,功夫再好也是挡不住的。
  遇到这玩意儿啊,男人就死定了,不然怎么叫英雄难过美人关呢?


◎截    图
中南海保镖.1994.WEB-DL.The Bodyguard from Beijing.3Audio.itunes.mkv_20211118_233.jpg 中南海保镖.1994.WEB-DL.The Bodyguard from Beijing.3Audio.itunes.mkv_20211118_233.jpg 中南海保镖.1994.WEB-DL.The Bodyguard from Beijing.3Audio.itunes.mkv_20211118_233.jpg 中南海保镖.1994.WEB-DL.The Bodyguard from Beijing.3Audio.itunes.mkv_20211118_233.jpg

中南海保镖.1994.WEB-DL.The Bodyguard from Beijing.3Audio.itunes.mkv.jpg

  1. Video
  2. ID                             : 1
  3. Format                         : AVC
  4. Format/Info                    : Advanced Video Codec
  5. Format profile                 : High@L4.1
  6. Format settings                : CABAC / 4 Ref Frames
  7. Format settings, CABAC         : Yes
  8. Format settings, Reference fra : 4 frames
  9. Codec ID                       : V_MPEG4/ISO/AVC
  10. Duration                       : 1 h 32 min
  11. Bit rate                       : 7 296 kb/s
  12. Width                          : 1 920 pixels
  13. Height                         : 1 080 pixels
  14. Display aspect ratio           : 16:9
  15. Frame rate mode                : Constant
  16. Frame rate                     : 23.976 (24000/1001) FPS
  17. Color space                    : YUV
  18. Chroma subsampling             : 4:2:0
  19. Bit depth                      : 8 bits
  20. Scan type                      : Progressive
  21. Bits/(Pixel*Frame)             : 0.147
  22. Stream size                    : 4.70 GiB (87%)
  23. Title                          : @至尊宝
  24. Writing library                : x264 core 148 r2638 7599210
  25. Encoding settings              : cabac=1 / ref=4 / deblock=1:-3:-3 / analyse=0x3:0x133 / me=umh / subme=10 / psy=1 / psy_rd=1.05:0.15 / mixed_ref=1 / me_range=24 / chroma_me=1 / trellis=2 / 8x8dct=1 / cqm=0 / deadzone=21,11 / fast_pskip=1 / chroma_qp_offset=-3 / threads=12 / lookahead_threads=2 / sliced_threads=0 / nr=0 / decimate=0 / interlaced=0 / bluray_compat=0 / constrained_intra=0 / bframes=8 / b_pyramid=2 / b_adapt=2 / b_bias=0 / direct=3 / weightb=1 / open_gop=1 / weightp=2 / keyint=441 / keyint_min=23 / scenecut=38 / intra_refresh=0 / rc_lookahead=60 / rc=crf / mbtree=1 / crf=17.0 / qcomp=0.60 / qpmin=0 / qpmax=69 / qpstep=4 / vbv_maxrate=62500 / vbv_bufsize=78125 / crf_max=0.0 / nal_hrd=none / filler=0 / ip_ratio=1.40 / aq=3:1.00
  26. Language                       : English
  27. Default                        : Yes
  28. Forced                         : No

  29. Audio #1
  30. ID                             : 2
  31. Format                         : AC-3
  32. Format/Info                    : Audio Coding 3
  33. Commercial name                : Dolby Digital
  34. Codec ID                       : A_AC3
  35. Duration                       : 1 h 32 min
  36. Bit rate mode                  : Constant
  37. Bit rate                       : 448 kb/s
  38. Channel(s)                     : 2 channels
  39. Channel layout                 : L R
  40. Sampling rate                  : 48.0 kHz
  41. Frame rate                     : 31.250 FPS (1536 SPF)
  42. Compression mode               : Lossy
  43. Stream size                    : 296 MiB (5%)
  44. Title                          : 国语
  45. Language                       : Chinese
  46. Service kind                   : Complete Main
  47. Default                        : Yes
  48. Forced                         : No

  49. Audio #2
  50. ID                             : 3
  51. Format                         : AC-3
  52. Format/Info                    : Audio Coding 3
  53. Commercial name                : Dolby Digital
  54. Codec ID                       : A_AC3
  55. Duration                       : 1 h 32 min
  56. Bit rate mode                  : Constant
  57. Bit rate                       : 448 kb/s
  58. Channel(s)                     : 2 channels
  59. Channel layout                 : L R
  60. Sampling rate                  : 48.0 kHz
  61. Frame rate                     : 31.250 FPS (1536 SPF)
  62. Compression mode               : Lossy
  63. Stream size                    : 296 MiB (5%)
  64. Title                          : 粤语
  65. Language                       : Chinese
  66. Service kind                   : Complete Main
  67. Default                        : No
  68. Forced                         : No

  69. Audio #3
  70. ID                             : 4
  71. Format                         : AAC LC
  72. Format/Info                    : Advanced Audio Codec Low Complexity
  73. Codec ID                       : A_AAC-2
  74. Duration                       : 1 h 32 min
  75. Bit rate                       : 126 kb/s
  76. Channel(s)                     : 2 channels
  77. Channel layout                 : L R
  78. Sampling rate                  : 48.0 kHz
  79. Frame rate                     : 46.875 FPS (1024 SPF)
  80. Compression mode               : Lossy
  81. Stream size                    : 83.4 MiB (2%)
  82. Title                          : 英语
  83. Language                       : English
  84. Default                        : No
  85. Forced                         : No

  86. Text #1
  87. ID                             : 5
  88. Format                         : ASS
  89. Codec ID                       : S_TEXT/ASS
  90. Codec ID/Info                  : Advanced Sub Station Alpha
  91. Duration                       : 1 h 26 min
  92. Bit rate                       : 136 b/s
  93. Count of elements              : 1246
  94. Compression mode               : Lossless
  95. Stream size                    : 87.0 KiB (0%)
  96. Title                          : 简体中文ASS
  97. Language                       : Chinese
  98. Default                        : Yes
  99. Forced                         : No

  100. Text #2
  101. ID                             : 6
  102. Format                         : ASS
  103. Codec ID                       : S_TEXT/ASS
  104. Codec ID/Info                  : Advanced Sub Station Alpha
  105. Duration                       : 1 h 26 min
  106. Bit rate                       : 136 b/s
  107. Count of elements              : 1246
  108. Compression mode               : Lossless
  109. Stream size                    : 87.0 KiB (0%)
  110. Title                          : 繁体中文ASS
  111. Language                       : Chinese
  112. Default                        : No
  113. Forced                         : No

  114. Text #3
  115. ID                             : 7
  116. Format                         : UTF-8
  117. Codec ID                       : S_TEXT/UTF8
  118. Codec ID/Info                  : UTF-8 Plain Text
  119. Duration                       : 1 h 26 min
  120. Bit rate                       : 46 b/s
  121. Count of elements              : 1246
  122. Stream size                    : 29.5 KiB (0%)
  123. Title                          : 简体中文SRT
  124. Language                       : Chinese
  125. Default                        : No
  126. Forced                         : No

  127. Text #4
  128. ID                             : 8
  129. Format                         : UTF-8
  130. Codec ID                       : S_TEXT/UTF8
  131. Codec ID/Info                  : UTF-8 Plain Text
  132. Duration                       : 1 h 26 min
  133. Bit rate                       : 46 b/s
  134. Count of elements              : 1246
  135. Stream size                    : 29.5 KiB (0%)
  136. Title                          : 繁体中文SRT
  137. Language                       : Chinese
  138. Default                        : No
  139. Forced                         : No

复制代码




点击进入百度网盘下载(←购买前请先验证分享链接是否有效)



此处内容付费可见

此处内容需要向楼主支付盘币或购买VIP才能显示 已有 101 人购买 

支付 5 盘币 升级VIP


该资源其他网盘分享渠道→点此了解功能详情

使用115网盘下载(来自 至尊宝c 的分享,下载需要单独支付 5 盘币)

免责申明 - 论坛版权1、本站所有资源均来自会员分享或网络收集整理,仅供会员交流学习,禁用商业用途或盈利,下载后请在24小时之内删除;
2、本站(www.pan6.com)支持正版,本资源版权归版权方所有,观看或阅读请到相应机构购买正版资源;
3、本站资源均来源于网络,本站不参与录制、上传,如本帖侵犯到任何版权问题,请立即告知本站(admin#pan6.com(#=@)),本站将及时予与删除并致以最深的歉意;

点赞

参与人数 1热心值 +1

支持楼主! + 1

查看点赞详情

楼主热贴推荐
华语影视爱好者
BT资源无法下载:戳这里,不会发帖、金币相关等新手问题:戳这里
回复

拉黑 使用道具 举报

为保留有用回复信息,此处有 101 个购买者的感谢留言已隐藏

主题
1
活跃值
2155
热心值
-4
盘币
202
注册时间
2018-4-28
最后登录
2022-1-27
在线时间
378 小时
发表于 2021-6-15 18:33:51 | 显示全部楼层
感谢楼主告知,感谢分享!
回复

拉黑 使用道具 举报

主题
63
活跃值
1745
热心值
61
盘币
526
注册时间
2018-3-28
最后登录
2022-1-27
在线时间
1509 小时
发表于 2021-6-16 06:53:30 来自手机 | 显示全部楼层
经典值得收藏
回复

拉黑 使用道具 举报

主题
0
活跃值
6296
热心值
-3
盘币
448
注册时间
2017-11-30
最后登录
2022-1-26
在线时间
97 小时
发表于 2021-6-16 08:22:33 | 显示全部楼层
莫听穿林打叶声,何妨吟啸且徐行
回复

拉黑 使用道具 举报

主题
0
活跃值
13124
热心值
-2
盘币
4796
注册时间
2015-10-11
最后登录
2022-1-26
在线时间
369 小时
发表于 2021-6-16 09:07:24 | 显示全部楼层
感謝樓主分享.......  
回复

拉黑 使用道具 举报

主题
0
活跃值
4992
热心值
0
盘币
83
注册时间
2016-5-1
最后登录
2022-1-26
在线时间
433 小时
发表于 2021-6-16 12:20:03 | 显示全部楼层
谢谢楼主分享
回复

拉黑 使用道具 举报

主题
5
活跃值
366
热心值
0
盘币
131
注册时间
2017-12-28
最后登录
2022-1-26
在线时间
299 小时

超级VIP老会员勋章长期在线

发表于 2021-6-16 14:30:18 | 显示全部楼层
这部貌似有完整版与删减版之分,也不知道删减了啥
回复

拉黑 使用道具 举报

主题
0
活跃值
105
热心值
0
盘币
391
注册时间
2018-2-25
最后登录
2022-1-26
在线时间
41 小时
发表于 2021-9-10 19:04:47 来自手机 | 显示全部楼层
楼主,itunes是什么格式啊,打不开呀
回复

拉黑 使用道具 举报

主题
3188
活跃值
21649
热心值
2627
盘币
363317
注册时间
2018-4-7
最后登录
2022-1-26
在线时间
1797 小时

长期在线阳光心情老会员勋章鼎力支持我是土豪优秀会员普通精华热心人士爱心满满灌水之王荣誉会员资源组成员动漫达人夜猫子

 楼主| 发表于 2021-9-10 20:06:22 | 显示全部楼层
念星辰 发表于 2021-9-10 19:04
楼主,itunes是什么格式啊,打不开呀

改成mkv播放      
华语影视爱好者
回复

拉黑 使用道具 举报

严禁灌水、讽刺、挖苦、辱骂分享者行为。回复前请详读:点击进入 理性回复,以免永久封禁。
您需要登录后才可以回帖 登录 | 加入论坛

本版积分规则

免责声明:本站所有资源均收集自互联网,没有提供影片资源存储,也未参与录制、上传。若本站收录的资源涉及您的版权或知识产权或其他利益,请附上版权证明邮件告知,在收到邮件后24小时内删除。

Copyright © 2012 [盘乐网] 管理员邮箱:admin#pan6.com(#=@)

站长信箱|sitemap|手机版|小黑屋|百度统计|盘乐网 ( 粤ICP备18120611号 )

快速回复 返回顶部 返回列表