盘乐网

 找回密码
 加入论坛
提示:多个关键词中间加空格 例如:天龙八部 星河
楼主: 至尊宝c

[WEB-DL] [中国香港][1996][百分百感觉][郑伊健/郑秀文/葛民辉][爱情][国粤语简繁软中字][1080P][MKV/2.58G][超清修复无水印][Netflix] 含百度网盘 含115网盘

  [复制链接]

主题
2960
活跃值
20687
热心值
2407
盘币
437367
注册时间
2018-4-7
最后登录
2021-12-3
在线时间
1694 小时

长期在线阳光心情老会员勋章鼎力支持我是土豪优秀会员普通精华热心人士爱心满满灌水之王荣誉会员资源组成员动漫达人夜猫子

发表于 2021-6-16 15:11:30 | 显示全部楼层 |阅读模式
请尊重分享者,本资源仅限交流未经楼主同意严禁转载或盈利,违者封号处理!


◎译  名 百分百感觉 / Feel 100%
◎片  名 百分百感覺
◎年  代 1996
◎产  地 中国香港
◎类  别 爱情
◎语  言 汉语普通话/粤语
◎上映日期 1996-07-20
◎IMDb评星  ★★★★★★☆☆☆☆
◎IMDb评分  6.2/10 from 152 users
◎IMDb链接  https://www.imdb.com/title/tt0278955/
◎豆瓣评星 ★★★☆☆
◎豆瓣评分 6.4/10 from 4,001 users
◎豆瓣链接 https://movie.douban.com/subject/1294086/
◎片  长 97 分钟
◎导  演 马伟豪 / Joe Ma
◎演  员 郑伊健 / Ekin Cheng
      郑秀文 / Sammi Cheng
      葛民辉 / Eric Kot
      梁咏琪 / Gigi Leung
      伍咏薇 / Christine Ng
      罗家英 / Kar-Ying Law
      谷德昭 / Vincent Kok
      黄伟文 / Wyman Wong
      黄雯 / Michelle Wong Man
      丁子峻 / Allen Ting
◎音  乐 罗坚 / Kin Law

◎标  签 香港 | 香港电影 | 郑秀文 | 郑伊健 | 爱情 | 喜剧 | 梁咏琪 | 马伟豪

◎简  介 

  Jerry(郑伊健 饰)、Cherrie(郑秀文 饰)还有许乐(葛文辉 饰)是好朋友,Jerry和许乐一直把Cherrie当成是“兄弟”,所以Jerry完全不感受到其实Cherrie很早就喜欢上自己,而且凭着帅气的外表结识了众多女友。后来认识了Jerry认识了芳芳(梁咏琪 饰),并产生了感情,Cherrie看到Jerry认认真真的谈起恋爱来,心里很不是滋味。直到芳芳决定出国留学与Jerry分手,Cherrie才敢说出自己的爱意。

◎截    图
百分百感觉.1996.WEB-DL.Feel 100%.2Audio.Netflix.@至尊宝.mkv_20211117_004133.400..jpg 百分百感觉.1996.WEB-DL.Feel 100%.2Audio.Netflix.@至尊宝.mkv_20211117_004141.312..jpg 百分百感觉.1996.WEB-DL.Feel 100%.2Audio.Netflix.@至尊宝.mkv_20211117_004057.722..jpg 百分百感觉.1996.WEB-DL.Feel 100%.2Audio.Netflix.@至尊宝.mkv_20211117_004039.974..jpg

百分百感觉.1996.WEB-DL.Feel 100%.2Audio.Netflix.@至尊宝.mkv.jpg

  1. Video
  2. ID                             : 1
  3. Format                         : AVC
  4. Format/Info                    : Advanced Video Codec
  5. Format profile                 : High@L4
  6. Format settings                : CABAC / 3 Ref Frames
  7. Format settings, CABAC         : Yes
  8. Format settings, Reference fra : 3 frames
  9. Codec ID                       : V_MPEG4/ISO/AVC
  10. Duration                       : 1 h 36 min
  11. Bit rate                       : 3 247 kb/s
  12. Width                          : 1 920 pixels
  13. Height                         : 1 080 pixels
  14. Display aspect ratio           : 16:9
  15. Frame rate mode                : Constant
  16. Frame rate                     : 23.976 (24000/1001) FPS
  17. Color space                    : YUV
  18. Chroma subsampling             : 4:2:0
  19. Bit depth                      : 8 bits
  20. Scan type                      : Progressive
  21. Bits/(Pixel*Frame)             : 0.065
  22. Stream size                    : 2.20 GiB (85%)
  23. Title                          : @至尊宝
  24. Language                       : Chinese
  25. Default                        : Yes
  26. Forced                         : No

  27. Audio #1
  28. ID                             : 2
  29. Format                         : AC-3
  30. Format/Info                    : Audio Coding 3
  31. Commercial name                : Dolby Digital
  32. Codec ID                       : A_AC3
  33. Duration                       : 1 h 36 min
  34. Bit rate mode                  : Constant
  35. Bit rate                       : 224 kb/s
  36. Channel(s)                     : 2 channels
  37. Channel layout                 : L R
  38. Sampling rate                  : 48.0 kHz
  39. Frame rate                     : 31.250 FPS (1536 SPF)
  40. Compression mode               : Lossy
  41. Stream size                    : 155 MiB (6%)
  42. Title                          : 国语
  43. Language                       : Chinese
  44. Service kind                   : Complete Main
  45. Default                        : Yes
  46. Forced                         : No

  47. Audio #2
  48. ID                             : 3
  49. Format                         : AC-3
  50. Format/Info                    : Audio Coding 3
  51. Commercial name                : Dolby Digital
  52. Codec ID                       : A_AC3
  53. Duration                       : 1 h 36 min
  54. Bit rate mode                  : Constant
  55. Bit rate                       : 320 kb/s
  56. Channel(s)                     : 2 channels
  57. Channel layout                 : L R
  58. Sampling rate                  : 44.1 kHz
  59. Frame rate                     : 28.711 FPS (1536 SPF)
  60. Compression mode               : Lossy
  61. Stream size                    : 222 MiB (8%)
  62. Title                          : 粤语
  63. Language                       : Chinese
  64. Service kind                   : Complete Main
  65. Default                        : No
  66. Forced                         : No

  67. Text #1
  68. ID                             : 4
  69. Format                         : ASS
  70. Codec ID                       : S_TEXT/ASS
  71. Codec ID/Info                  : Advanced Sub Station Alpha
  72. Duration                       : 1 h 35 min
  73. Bit rate                       : 129 b/s
  74. Count of elements              : 1170
  75. Compression mode               : Lossless
  76. Stream size                    : 90.3 KiB (0%)
  77. Title                          : 简体中文ASS
  78. Language                       : Chinese
  79. Default                        : Yes
  80. Forced                         : No

  81. Text #2
  82. ID                             : 5
  83. Format                         : ASS
  84. Codec ID                       : S_TEXT/ASS
  85. Codec ID/Info                  : Advanced Sub Station Alpha
  86. Duration                       : 1 h 35 min
  87. Bit rate                       : 129 b/s
  88. Count of elements              : 1170
  89. Compression mode               : Lossless
  90. Stream size                    : 90.3 KiB (0%)
  91. Title                          : 繁体中文ASS
  92. Language                       : Chinese
  93. Default                        : No
  94. Forced                         : No

  95. Text #3
  96. ID                             : 6
  97. Format                         : UTF-8
  98. Codec ID                       : S_TEXT/UTF8
  99. Codec ID/Info                  : UTF-8 Plain Text
  100. Duration                       : 1 h 35 min
  101. Bit rate                       : 50 b/s
  102. Count of elements              : 1170
  103. Stream size                    : 35.4 KiB (0%)
  104. Title                          : 简体中文SRT
  105. Language                       : Chinese
  106. Default                        : No
  107. Forced                         : No

  108. Text #4
  109. ID                             : 7
  110. Format                         : UTF-8
  111. Codec ID                       : S_TEXT/UTF8
  112. Codec ID/Info                  : UTF-8 Plain Text
  113. Duration                       : 1 h 35 min
  114. Bit rate                       : 50 b/s
  115. Count of elements              : 1170
  116. Stream size                    : 35.4 KiB (0%)
  117. Title                          : 繁体中文SRT
  118. Language                       : Chinese
  119. Default                        : No
  120. Forced                         : No

复制代码




点击进入百度网盘下载(←购买前请先验证分享链接是否有效)



此处内容付费可见

此处内容需要向楼主支付盘币或购买VIP才能显示 已有 68 人购买 

支付 5 盘币 升级VIP


该资源其他网盘分享渠道→点此了解功能详情

使用115网盘下载(来自 至尊宝c 的分享,下载需要单独支付 5 盘币)

免责申明 - 论坛版权1、本站所有资源均来自会员分享或网络收集整理,仅供会员交流学习,禁用商业用途或盈利,下载后请在24小时之内删除;
2、本站(www.pan6.com)支持正版,本资源版权归版权方所有,观看或阅读请到相应机构购买正版资源;
3、本站资源均来源于网络,本站不参与录制、上传,如本帖侵犯到任何版权问题,请立即告知本站(admin#pan6.com(#=@)),本站将及时予与删除并致以最深的歉意;

点赞

参与人数 2热心值 +2

给力资源,感谢分享! + 1

资源给力! + 1

查看点赞详情

楼主热贴推荐
华语影视爱好者
BT资源无法下载:戳这里,不会发帖、金币相关等新手问题:戳这里
回复

拉黑 使用道具 举报

为保留有用回复信息,此处有 68 个购买者的感谢留言已隐藏

主题
39
活跃值
2509
热心值
23
盘币
893
注册时间
2018-2-1
最后登录
2021-12-3
在线时间
142 小时
发表于 2021-6-16 15:32:35 | 显示全部楼层
多谢楼主的影片,一直找好久了
回复

拉黑 使用道具 举报

主题
21
活跃值
3337
热心值
0
盘币
2648
注册时间
2017-11-29
最后登录
2021-12-3
在线时间
198 小时
发表于 2021-6-16 17:52:49 | 显示全部楼层
请问楼主到底是“葛民辉”还是“葛文辉”?
回复

拉黑 使用道具 举报

主题
1
活跃值
1610
热心值
0
盘币
66
注册时间
2018-9-22
最后登录
2021-10-18
在线时间
47 小时

老会员勋章超级VIP

发表于 2021-6-16 22:10:55 | 显示全部楼层
多谢楼主的影片,一直找好久了
我爱网盘我爱网盘我爱网盘我爱网
回复

拉黑 使用道具 举报

主题
36
活跃值
1572
热心值
18
盘币
4951
注册时间
2017-6-26
最后登录
2021-12-3
在线时间
129 小时
发表于 2021-6-17 10:37:55 | 显示全部楼层
太帅了。最好庙街故事国粤中字的也能找到发出来
回复

拉黑 使用道具 举报

严禁灌水、讽刺、挖苦、辱骂分享者行为。回复前请详读:点击进入 理性回复,以免永久封禁。
您需要登录后才可以回帖 登录 | 加入论坛

本版积分规则

免责声明:本站所有资源均收集自互联网,没有提供影片资源存储,也未参与录制、上传。若本站收录的资源涉及您的版权或知识产权或其他利益,请附上版权证明邮件告知,在收到邮件后24小时内删除。

Copyright © 2012 [盘乐网] 管理员邮箱:admin#pan6.com(#=@)

站长信箱|sitemap|手机版|小黑屋|百度统计|盘乐网 ( 粤ICP备18120611号 )

快速回复 返回顶部 返回列表