盘乐网

 找回密码
 加入论坛
提示:多个关键词中间加空格 例如:天龙八部 星河
楼主: 至尊宝c

[WEB-DL] [中国香港][2001][异灵灵异2002][谢霆锋/冯德伦/罗家英][科幻][国粤语简繁软中字][1080P][MKV/8.89G][超清修复无水印][AMZN] 含百度网盘 含115网盘

  [复制链接]

主题
2960
活跃值
20687
热心值
2407
盘币
437377
注册时间
2018-4-7
最后登录
2021-12-3
在线时间
1697 小时

长期在线阳光心情老会员勋章鼎力支持我是土豪优秀会员普通精华热心人士爱心满满灌水之王荣誉会员资源组成员动漫达人夜猫子

发表于 2021-6-18 10:47:39 | 显示全部楼层 |阅读模式
请尊重分享者,本资源仅限交流未经楼主同意严禁转载或盈利,违者封号处理!
p2526694308_gaitubao_455x642.jpg
◎译  名 异灵灵异2002 / 异灵灵异-2002
◎片  名 2002
◎年  代 2001
◎产  地 中国香港
◎类  别 喜剧 / 爱情 / 科幻 / 恐怖
◎语  言 汉语普通话/粤语
◎上映日期 2001-12-15
◎IMDb评分  6.2/10 from 605 users
◎IMDb链接  https://www.imdb.com/title/tt0294251
◎豆瓣评分 6.6/10 from 6817 users
◎豆瓣链接 https://movie.douban.com/subject/1298065/
◎片  长 96分钟
◎导  演 叶伟信 Wilson Yip
◎编  剧 谷德昭 Vincent Kok / 叶伟信 Wilson Yip / 郭子健 Derek Kwok Chi-kin  / 司徒锦源 Kam-Yuen Szeto
◎主  演 谢霆锋 Nicholas Tse
       冯德伦 Stephen Fung
       罗家英 Kar-Ying Law
       李彩桦 Rain Li
       李灿森 Sam Lee
       方力申 Lik-Sun Fong
       安雅 Anya
       李力持 Lik-Chi Lee
       侯焕玲 Woon Ling Hau
       谷德昭 Vincent Kok
       丹妮拉·格拉翰 Danielle Graham


◎标  签 谢霆锋 | 香港 | 香港电影 | 冯德伦 | 动作 | 鬼片 | 喜剧 | 叶伟信

◎简  介  

  警方设立一个名为“2002”的部门,专门对付祸害人间的游魂野鬼。部门内潮(谢霆锋 饰)是拥有阴阳眼的人类,Sam(李灿森 饰)则是个鬼魂,整个部门便由这一人一鬼组成。期间他们遇到了形形式式的加害人类的鬼魂,并一一收复了。后来潮受死去的四婆所托,帮忙照顾住院中的孙女Rain(李彩桦 饰)。潮爱上了医院中的一名护士。但他要专心于Sam一起对付水鬼,这场争斗将决定他们的生死。

◎获奖情况  

  第21届香港电影金像奖(2002)
  最佳视觉效果(提名) 黄宏达


◎截    图
异灵灵异2002.2002.WEB.2AC3.AMZN.@至尊宝.mkv_20210618_004020.141.jpg 异灵灵异2002.2002.WEB.2AC3.AMZN.@至尊宝.mkv_20210618_004000.680.jpg 异灵灵异2002.2002.WEB.2AC3.AMZN.@至尊宝.mkv_20210618_003926.851.jpg 异灵灵异2002.2002.WEB.2AC3.AMZN.@至尊宝.mkv_20210618_003948.730.jpg

异灵灵异2002.2002.WEB.2AC3.AMZN.@至尊宝.mkv.jpg

  1. Video
  2. ID                             : 1
  3. Format                         : AVC
  4. Format/Info                    : Advanced Video Codec
  5. Format profile                 : High@L4
  6. Format settings                : CABAC / 4 Ref Frames
  7. Format settings, CABAC         : Yes
  8. Format settings, Reference fra : 4 frames
  9. Codec ID                       : V_MPEG4/ISO/AVC
  10. Duration                       : 1 h 36 min
  11. Bit rate                       : 12.6 Mb/s
  12. Width                          : 1 920 pixels
  13. Height                         : 1 080 pixels
  14. Display aspect ratio           : 16:9
  15. Frame rate mode                : Constant
  16. Frame rate                     : 24.000 FPS
  17. Color space                    : YUV
  18. Chroma subsampling             : 4:2:0
  19. Bit depth                      : 8 bits
  20. Scan type                      : Progressive
  21. Bits/(Pixel*Frame)             : 0.253
  22. Stream size                    : 8.51 GiB (96%)
  23. Title                          : @至尊宝
  24. Language                       : Chinese
  25. Default                        : Yes
  26. Forced                         : No
  27. Color range                    : Limited
  28. Color primaries                : BT.709
  29. Transfer characteristics       : BT.709
  30. Matrix coefficients            : BT.709

  31. Audio #1
  32. ID                             : 2
  33. Format                         : AC-3
  34. Format/Info                    : Audio Coding 3
  35. Commercial name                : Dolby Digital
  36. Codec ID                       : A_AC3
  37. Duration                       : 1 h 36 min
  38. Bit rate mode                  : Constant
  39. Bit rate                       : 320 kb/s
  40. Channel(s)                     : 2 channels
  41. Channel layout                 : L R
  42. Sampling rate                  : 44.1 kHz
  43. Frame rate                     : 28.711 FPS (1536 SPF)
  44. Compression mode               : Lossy
  45. Stream size                    : 221 MiB (2%)
  46. Title                          : 国语
  47. Language                       : Chinese
  48. Service kind                   : Complete Main
  49. Default                        : Yes
  50. Forced                         : No

  51. Audio #2
  52. ID                             : 3
  53. Format                         : E-AC-3
  54. Format/Info                    : Enhanced AC-3
  55. Commercial name                : Dolby Digital Plus
  56. Codec ID                       : A_EAC3
  57. Duration                       : 1 h 36 min
  58. Bit rate mode                  : Constant
  59. Bit rate                       : 224 kb/s
  60. Channel(s)                     : 2 channels
  61. Channel layout                 : L R
  62. Sampling rate                  : 48.0 kHz
  63. Frame rate                     : 31.250 FPS (1536 SPF)
  64. Compression mode               : Lossy
  65. Stream size                    : 155 MiB (2%)
  66. Title                          : 粤语
  67. Language                       : Chinese
  68. Service kind                   : Complete Main
  69. Default                        : No
  70. Forced                         : No

  71. Text #1
  72. ID                             : 4
  73. Format                         : UTF-8
  74. Codec ID                       : S_TEXT/UTF8
  75. Codec ID/Info                  : UTF-8 Plain Text
  76. Duration                       : 1 h 32 min
  77. Bit rate                       : 38 b/s
  78. Count of elements              : 1020
  79. Stream size                    : 26.1 KiB (0%)
  80. Title                          : 简体
  81. Language                       : Chinese
  82. Default                        : Yes
  83. Forced                         : No

  84. Text #2
  85. ID                             : 5
  86. Format                         : UTF-8
  87. Codec ID                       : S_TEXT/UTF8
  88. Codec ID/Info                  : UTF-8 Plain Text
  89. Duration                       : 1 h 32 min
  90. Bit rate                       : 38 b/s
  91. Count of elements              : 1020
  92. Stream size                    : 26.1 KiB (0%)
  93. Title                          : 繁体
  94. Language                       : Chinese
  95. Default                        : No
  96. Forced                         : No

  97. Text #3
  98. ID                             : 6
  99. Format                         : UTF-8
  100. Codec ID                       : S_TEXT/UTF8
  101. Codec ID/Info                  : UTF-8 Plain Text
  102. Duration                       : 1 h 32 min
  103. Bit rate                       : 32 b/s
  104. Count of elements              : 1014
  105. Stream size                    : 21.9 KiB (0%)
  106. Title                          : 英文
  107. Language                       : English
  108. Default                        : No
  109. Forced                         : No

  110. Text #4
  111. ID                             : 7
  112. Format                         : UTF-8
  113. Codec ID                       : S_TEXT/UTF8
  114. Codec ID/Info                  : UTF-8 Plain Text
  115. Duration                       : 1 h 32 min
  116. Bit rate                       : 83 b/s
  117. Count of elements              : 1020
  118. Stream size                    : 57.0 KiB (0%)
  119. Title                          : 腾祥嘉丽中圆简体
  120. Language                       : Chinese
  121. Default                        : No
  122. Forced                         : No

  123. Text #5
  124. ID                             : 8
  125. Format                         : UTF-8
  126. Codec ID                       : S_TEXT/UTF8
  127. Codec ID/Info                  : UTF-8 Plain Text
  128. Duration                       : 1 h 32 min
  129. Bit rate                       : 83 b/s
  130. Count of elements              : 1020
  131. Stream size                    : 57.0 KiB (0%)
  132. Title                          : 腾祥嘉丽中圆繁体
  133. Language                       : Chinese
  134. Default                        : No
  135. Forced                         : No

复制代码


合成加入国语音轨,亚马逊高码源,目前画质最佳

◎资源链接:
点击进入百度网盘下载(←购买前请先验证分享链接是否有效)


此处内容付费可见

此处内容需要向楼主支付盘币或购买VIP才能显示 已有 76 人购买 

支付 5 盘币 升级VIP


该资源其他网盘分享渠道→点此了解功能详情

使用115网盘下载(来自 至尊宝c 的分享,下载需要单独支付 5 盘币)

免责申明 - 论坛版权1、本站所有资源均来自会员分享或网络收集整理,仅供会员交流学习,禁用商业用途或盈利,下载后请在24小时之内删除;
2、本站(www.pan6.com)支持正版,本资源版权归版权方所有,观看或阅读请到相应机构购买正版资源;
3、本站资源均来源于网络,本站不参与录制、上传,如本帖侵犯到任何版权问题,请立即告知本站(admin#pan6.com(#=@)),本站将及时予与删除并致以最深的歉意;
楼主热贴推荐
华语影视爱好者
BT资源无法下载:戳这里,不会发帖、金币相关等新手问题:戳这里
回复

拉黑 使用道具 举报

为保留有用回复信息,此处有 76 个购买者的感谢留言已隐藏

主题
0
活跃值
5844
热心值
0
盘币
0
注册时间
2017-9-21
最后登录
2021-12-3
在线时间
69 小时
发表于 2021-6-18 11:10:34 | 显示全部楼层
谢谢lz分享
回复

拉黑 使用道具 举报

主题
198
活跃值
8174
热心值
221
盘币
4811
注册时间
2015-12-3
最后登录
2021-12-3
在线时间
1120 小时

长期在线阳光心情老会员勋章普通精华鼎力支持灌水之王热心人士爱心满满

发表于 2021-6-18 14:43:16 | 显示全部楼层
收了     洗掉小web
论坛的sx太多了。。。醉了。。
回复

拉黑 使用道具 举报

主题
1
活跃值
6578
热心值
0
盘币
7
注册时间
2017-1-9
最后登录
2021-12-3
在线时间
103 小时

老会员勋章长期在线灌水之王

发表于 2021-6-18 18:37:58 | 显示全部楼层
这电影不错啊
回复

拉黑 使用道具 举报

主题
0
活跃值
1922
热心值
0
盘币
585
注册时间
2018-3-9
最后登录
2021-12-3
在线时间
16 小时
发表于 2021-6-19 02:38:05 | 显示全部楼层
这个是好东西 感谢了
回复

拉黑 使用道具 举报

主题
1
活跃值
287
热心值
0
盘币
0
注册时间
2018-5-11
最后登录
2021-11-25
在线时间
49 小时
发表于 2021-6-21 19:30:41 | 显示全部楼层
幸苦了,又洗版了!
回复

拉黑 使用道具 举报

主题
0
活跃值
33
热心值
0
盘币
16
注册时间
2021-9-8
最后登录
2021-11-2
在线时间
5 小时
发表于 2021-9-8 19:53:38 | 显示全部楼层
请问字幕怎么搞呀,下载到网盘没有字幕
回复

拉黑 使用道具 举报

主题
2960
活跃值
20687
热心值
2407
盘币
437377
注册时间
2018-4-7
最后登录
2021-12-3
在线时间
1697 小时

长期在线阳光心情老会员勋章鼎力支持我是土豪优秀会员普通精华热心人士爱心满满灌水之王荣誉会员资源组成员动漫达人夜猫子

 楼主| 发表于 2021-9-8 19:58:58 | 显示全部楼层
风止千山 发表于 2021-9-8 19:53
请问字幕怎么搞呀,下载到网盘没有字幕

下载到本地看,网盘不支持
华语影视爱好者
回复

拉黑 使用道具 举报

主题
4
活跃值
2117
热心值
3
盘币
501
注册时间
2018-11-17
最后登录
2021-12-3
在线时间
68 小时
发表于 2021-10-9 00:05:35 | 显示全部楼层
谢谢分享 找了好久了
回复

拉黑 使用道具 举报

严禁灌水、讽刺、挖苦、辱骂分享者行为。回复前请详读:点击进入 理性回复,以免永久封禁。
您需要登录后才可以回帖 登录 | 加入论坛

本版积分规则

免责声明:本站所有资源均收集自互联网,没有提供影片资源存储,也未参与录制、上传。若本站收录的资源涉及您的版权或知识产权或其他利益,请附上版权证明邮件告知,在收到邮件后24小时内删除。

Copyright © 2012 [盘乐网] 管理员邮箱:admin#pan6.com(#=@)

站长信箱|sitemap|手机版|小黑屋|百度统计|盘乐网 ( 粤ICP备18120611号 )

快速回复 返回顶部 返回列表