盘乐网

 找回密码
 加入论坛
提示:多个关键词中间加空格 例如:天龙八部 星河
查看: 1063|回复: 100

[BD-1080P] [中国香港][1989][猎魔群英][胡慧中/李赛凤/万梓良][动作][国粤语简繁软中字][1080P][MKV/7.9G][法版蓝光修复无水印][至尊宝] 含百度网盘 含115网盘

  [复制链接]

主题
3186
活跃值
21641
热心值
2604
盘币
363708
注册时间
2018-4-7
最后登录
2022-1-21
在线时间
1797 小时

长期在线阳光心情老会员勋章鼎力支持我是土豪优秀会员普通精华热心人士爱心满满灌水之王荣誉会员资源组成员动漫达人夜猫子

发表于 2021-6-19 11:13:32 | 显示全部楼层 |阅读模式
请尊重分享者,本资源仅限交流未经楼主同意严禁转载或盈利,违者封号处理!
260410_front_gaitubao_455x679.jpg
◎译  名 猎魔群英 / Devil Hunters / 猎魔除凶
◎片  名 獵魔群英
◎年  代 1989
◎产  地 中国香港
◎类  别 动作
◎语  言 汉语普通话/粤语
◎上映日期 1989-08-10(中国香港)
◎IMDb评分  5.9/10 from 143 users
◎IMDb链接  https://www.imdb.com/title/tt0097745
◎豆瓣评分 6.2/10 from 721 users
◎豆瓣链接 https://movie.douban.com/subject/1305478/
◎片  长 88分钟
◎导  演 王振仰 Chun-Yeung Wong
◎编  剧 陈文贵 Wengui Chen / 王振仰 Chun-Yeung Wong
◎主  演 胡慧中 Sibelle Hu
       李赛凤 Moon Lee
       万梓良 Alex Man
       吕良伟 Ray Lui
       刘兆铭 Lau Siu Ming
       吴镇宇 Francis Ng
       刘红芳 Lau Hung-Fong
       王文成 Man Shing Wong
       王伟 Wai Wong
       文雪儿 Hsueh-erh Wen
       郑康业 Kang-Yeh Cheng
       卢惠光 Ken Lo
       徐宝华 Ridley Tsui
       陈惠敏 Wai-Man Chan


◎标  签 香港 | 动作 | 胡慧中 | 香港电影 | 吴镇宇 | 警匪 | 万梓良 | 李赛凤

◎简  介  

  毒枭韩山(王伟 饰)和齐仁(刘兆铭 饰)约定在青龙水上乐园进行毒品交易,得到线报的警察暗地潜伏,如果行动成功的话,他们便能够将两大团伙的头目一举拿下。哪知道,就在这个节骨眼上,出现了神秘人物齐越(吕良伟 饰)和秦冰(李赛凤 饰),导致警方的计划暴露,行动失败。韩山认为是齐仁走漏了消息,将他打死。这令齐越发誓一定要为父亲报仇。赵成(吴镇宇 饰)本是韩山的部下,却起了僭越之心,逼迫韩山退位让贤。胡坚和燕虎(陈惠敏 饰)忠心护主,却都落得了惨死的下场。临死前,燕虎将组里的情报告诉了警方,警方派出得力干将唐枫(胡慧中 饰)试图将赵成的黑恶势力捣破。


◎截    图
猎魔群英.1989.BDRip.Devil Hunters.FRA.2AC3.@至尊宝.mkv_20210619_004705.514.jpg 猎魔群英.1989.BDRip.Devil Hunters.FRA.2AC3.@至尊宝.mkv_20210619_004750.729.jpg 猎魔群英.1989.BDRip.Devil Hunters.FRA.2AC3.@至尊宝.mkv_20210619_004919.190.jpg 猎魔群英.1989.BDRip.Devil Hunters.FRA.2AC3.@至尊宝.mkv_20210619_005143.331.jpg

猎魔群英.1989.BDRip.Devil Hunters.FRA.2AC3.@至尊宝.mkv.jpg

  1. Video
  2. ID                             : 1
  3. Format                         : AVC
  4. Format/Info                    : Advanced Video Codec
  5. Format profile                 : High@L4.1
  6. Format settings                : CABAC / 4 Ref Frames
  7. Format settings, CABAC         : Yes
  8. Format settings, Reference fra : 4 frames
  9. Codec ID                       : V_MPEG4/ISO/AVC
  10. Duration                       : 1 h 28 min
  11. Bit rate                       : 11.9 Mb/s
  12. Width                          : 1 920 pixels
  13. Height                         : 1 080 pixels
  14. Display aspect ratio           : 16:9
  15. Frame rate mode                : Constant
  16. Frame rate                     : 25.000 FPS
  17. Color space                    : YUV
  18. Chroma subsampling             : 4:2:0
  19. Bit depth                      : 8 bits
  20. Scan type                      : Progressive
  21. Bits/(Pixel*Frame)             : 0.230
  22. Stream size                    : 7.37 GiB (93%)
  23. Title                          : 盘乐网@至尊宝
  24. Writing library                : x264 core 161 r3015 4c2aafd
  25. Encoding settings              : cabac=1 / ref=1 / deblock=1:0:0 / analyse=0x3:0x113 / me=hex / subme=2 / psy=0 / mixed_ref=0 / me_range=16 / chroma_me=1 / trellis=0 / 8x8dct=1 / cqm=0 / deadzone=21,11 / fast_pskip=1 / chroma_qp_offset=0 / threads=12 / lookahead_threads=4 / sliced_threads=0 / nr=0 / decimate=1 / interlaced=0 / bluray_compat=0 / constrained_intra=0 / bframes=3 / b_pyramid=2 / b_adapt=1 / b_bias=0 / direct=1 / weightb=1 / open_gop=0 / weightp=1 / keyint=250 / keyint_min=25 / scenecut=40 / intra_refresh=0 / rc_lookahead=10 / rc=crf / mbtree=1 / crf=16.0 / qcomp=0.60 / qpmin=0 / qpmax=69 / qpstep=4 / ip_ratio=1.40 / aq=2:1.00
  26. Language                       : Chinese
  27. Default                        : Yes
  28. Forced                         : No

  29. Audio #1
  30. ID                             : 2
  31. Format                         : AC-3
  32. Format/Info                    : Audio Coding 3
  33. Commercial name                : Dolby Digital
  34. Codec ID                       : A_AC3
  35. Duration                       : 1 h 28 min
  36. Bit rate mode                  : Constant
  37. Bit rate                       : 192 kb/s
  38. Channel(s)                     : 2 channels
  39. Channel layout                 : L R
  40. Sampling rate                  : 48.0 kHz
  41. Frame rate                     : 31.250 FPS (1536 SPF)
  42. Compression mode               : Lossy
  43. Stream size                    : 122 MiB (2%)
  44. Title                          : 国语
  45. Language                       : Chinese
  46. Service kind                   : Complete Main
  47. Default                        : Yes
  48. Forced                         : No

  49. Audio #2
  50. ID                             : 3
  51. Format                         : AC-3
  52. Format/Info                    : Audio Coding 3
  53. Commercial name                : Dolby Digital
  54. Codec ID                       : A_AC3
  55. Duration                       : 1 h 28 min
  56. Bit rate mode                  : Constant
  57. Bit rate                       : 640 kb/s
  58. Channel(s)                     : 2 channels
  59. Channel layout                 : L R
  60. Sampling rate                  : 48.0 kHz
  61. Frame rate                     : 31.250 FPS (1536 SPF)
  62. Compression mode               : Lossy
  63. Stream size                    : 406 MiB (5%)
  64. Title                          : 粤语
  65. Language                       : Chinese
  66. Service kind                   : Complete Main
  67. Default                        : No
  68. Forced                         : No

  69. Text #1
  70. ID                             : 4
  71. Format                         : UTF-8
  72. Codec ID                       : S_TEXT/UTF8
  73. Codec ID/Info                  : UTF-8 Plain Text
  74. Duration                       : 1 h 26 min
  75. Bit rate                       : 29 b/s
  76. Count of elements              : 811
  77. Stream size                    : 18.7 KiB (0%)
  78. Title                          : 简体
  79. Language                       : Chinese
  80. Default                        : Yes
  81. Forced                         : No

  82. Text #2
  83. ID                             : 5
  84. Format                         : UTF-8
  85. Codec ID                       : S_TEXT/UTF8
  86. Codec ID/Info                  : UTF-8 Plain Text
  87. Duration                       : 1 h 26 min
  88. Bit rate                       : 29 b/s
  89. Count of elements              : 811
  90. Stream size                    : 18.7 KiB (0%)
  91. Title                          : 繁体
  92. Language                       : Chinese
  93. Default                        : No
  94. Forced                         : No

  95. Text #3
  96. ID                             : 6
  97. Format                         : UTF-8
  98. Codec ID                       : S_TEXT/UTF8
  99. Codec ID/Info                  : UTF-8 Plain Text
  100. Duration                       : 1 h 26 min
  101. Bit rate                       : 68 b/s
  102. Count of elements              : 811
  103. Stream size                    : 43.3 KiB (0%)
  104. Title                          : 腾祥嘉丽中圆简体
  105. Language                       : Chinese
  106. Default                        : No
  107. Forced                         : No

  108. Text #4
  109. ID                             : 7
  110. Format                         : UTF-8
  111. Codec ID                       : S_TEXT/UTF8
  112. Codec ID/Info                  : UTF-8 Plain Text
  113. Duration                       : 1 h 26 min
  114. Bit rate                       : 68 b/s
  115. Count of elements              : 811
  116. Stream size                    : 43.3 KiB (0%)
  117. Title                          : 腾祥嘉丽中圆繁体
  118. Language                       : Chinese
  119. Default                        : No
  120. Forced                         : No

复制代码



◎资源链接:
点击进入百度网盘下载(←购买前请先验证分享链接是否有效)


此处内容付费可见

此处内容需要向楼主支付盘币或购买VIP才能显示 已有 98 人购买 

支付 5 盘币 升级VIP


该资源其他网盘分享渠道→点此了解功能详情

使用115网盘下载(来自 至尊宝c 的分享,下载需要单独支付 5 盘币)

免责申明 - 论坛版权1、本站所有资源均来自会员分享或网络收集整理,仅供会员交流学习,禁用商业用途或盈利,下载后请在24小时之内删除;
2、本站(www.pan6.com)支持正版,本资源版权归版权方所有,观看或阅读请到相应机构购买正版资源;
3、本站资源均来源于网络,本站不参与录制、上传,如本帖侵犯到任何版权问题,请立即告知本站(admin#pan6.com(#=@)),本站将及时予与删除并致以最深的歉意;
楼主热贴推荐
华语影视爱好者
BT资源无法下载:戳这里,不会发帖、金币相关等新手问题:戳这里
回复

拉黑 使用道具 举报

为保留有用回复信息,此处有 98 个购买者的感谢留言已隐藏

主题
0
活跃值
4992
热心值
0
盘币
85
注册时间
2016-5-1
最后登录
2022-1-20
在线时间
432 小时
发表于 2021-6-19 12:22:10 | 显示全部楼层
谢谢楼主发现
回复

拉黑 使用道具 举报

主题
0
活跃值
573
热心值
0
盘币
1749
注册时间
2018-11-29
最后登录
2022-1-20
在线时间
149 小时
发表于 2021-8-14 13:20:32 | 显示全部楼层
谢谢分享了
回复

拉黑 使用道具 举报

严禁灌水、讽刺、挖苦、辱骂分享者行为。回复前请详读:点击进入 理性回复,以免永久封禁。
您需要登录后才可以回帖 登录 | 加入论坛

本版积分规则

免责声明:本站所有资源均收集自互联网,没有提供影片资源存储,也未参与录制、上传。若本站收录的资源涉及您的版权或知识产权或其他利益,请附上版权证明邮件告知,在收到邮件后24小时内删除。

Copyright © 2012 [盘乐网] 管理员邮箱:admin#pan6.com(#=@)

站长信箱|sitemap|手机版|小黑屋|百度统计|盘乐网 ( 粤ICP备18120611号 )

快速回复 返回顶部 返回列表