盘乐网

 找回密码
 加入论坛
提示:多个关键词中间加空格 例如:天龙八部 星河
楼主: 至尊宝c

[WEB-DL] [中国香港][1994][鬼迷心窍][黄秋生/任达华/李若彤][恐怖][国粤语简繁软中字][1080P][MKV/3.62G][超清修复无水印][Netflix] 含百度网盘 含115网盘

  [复制链接]

主题
2960
活跃值
20687
热心值
2407
盘币
437472
注册时间
2018-4-7
最后登录
2021-12-3
在线时间
1697 小时

长期在线阳光心情老会员勋章鼎力支持我是土豪优秀会员普通精华热心人士爱心满满灌水之王荣誉会员资源组成员动漫达人夜猫子

发表于 2021-6-25 20:48:42 | 显示全部楼层 |阅读模式
请尊重分享者,本资源仅限交流未经楼主同意严禁转载或盈利,违者封号处理!
cover_gaitubao_455x686.jpg
◎译  名 鬼迷心窍 / 惊吓王 / Awakening
◎片  名 鬼迷心竅
◎年  代 1994
◎产  地 中国香港 / 中国内地
◎类  别 恐怖
◎语  言 汉语普通话/粤语
◎上映日期 1994-09-24(中国香港)
◎IMDb评星  ★★★★✦☆☆☆☆☆
◎IMDb评分  4.4/10 from 51 users
◎IMDb链接  https://www.imdb.com/title/tt0109953/
◎豆瓣评星 ★★★☆☆
◎豆瓣评分 5.5/10 from 818 users
◎豆瓣链接 https://movie.douban.com/subject/1304278/
◎片  长 92 分钟
◎导  演 查传谊 / Chuen-Yee Cha
◎演  员 黄秋生 / Anthony Wong Chau-Sang
      任达华 / Simon Yam
      李婉华 / Anita Lee
      李若彤 / Carman Lee
      黄霑 / James Wong
      谭淑梅 / Suk-mui Tam | 饰 女主持
      王文成 / Man Shing Wong
◎编  剧 钟爱芬 / Oi Fong Chung
      钟继昌 / Kai Cheung Chung
      林纪陶 / Jason Lam
◎剪  辑 李广添 / Kwong-Tim Lee

◎标  签 黄秋生 | 香港 | 恐怖 | 任达华 | 香港电影 | 李若彤 | 1994 | 惊悚

◎简  介 

  刘圣明(黄秋生 饰)是一位捉鬼大师,他的妻子是香港小姐,两人婚姻美满,育有一女,家庭和事业人人羡慕。可是,近日里,刘圣明的身边发生了一系列科学无法解释的怪事,就连一直恩爱的妻子也变得怪里怪气,更有神秘男子出现口出不详之言,让刘圣明十分不安。
  刘圣明企图调查 怪事的真相,才知道神秘男子是自己的旧识卓文(任达华 饰),曾经,卓文请求刘圣明帮自己驱鬼,哪知道刘圣明外强中干,碍于面子乱作一番,导致卓文厄运连连,妻离子散。卓文的归来让刘圣明十分害怕,他甚至想方设法,要除掉这个可能给自己和家庭造成威胁的男人。


◎截    图
鬼迷心窍.1994.WEB-DL.Awakening.2Audio.Netflix.@至尊宝.mkv_20211104_142756.987.jpg 鬼迷心窍.1994.WEB-DL.Awakening.2Audio.Netflix.@至尊宝.mkv_20211104_142846.558.jpg 鬼迷心窍.1994.WEB-DL.Awakening.2Audio.Netflix.@至尊宝.mkv_20211104_142944.568.jpg 鬼迷心窍.1994.WEB-DL.Awakening.2Audio.Netflix.@至尊宝.mkv_20211104_142910.035.jpg

鬼迷心窍.1994.WEB-DL.Awakening.2Audio.Netflix.@至尊宝.mkv.jpg

  1. Video
  2. ID                             : 1
  3. Format                         : AVC
  4. Format/Info                    : Advanced Video Codec
  5. Format profile                 : High@L4
  6. Format settings                : CABAC / 3 Ref Frames
  7. Format settings, CABAC         : Yes
  8. Format settings, Reference fra : 3 frames
  9. Codec ID                       : V_MPEG4/ISO/AVC
  10. Duration                       : 1 h 37 min
  11. Bit rate                       : 5 019 kb/s
  12. Width                          : 1 920 pixels
  13. Height                         : 1 080 pixels
  14. Display aspect ratio           : 16:9
  15. Frame rate mode                : Constant
  16. Frame rate                     : 23.976 (24000/1001) FPS
  17. Color space                    : YUV
  18. Chroma subsampling             : 4:2:0
  19. Bit depth                      : 8 bits
  20. Scan type                      : Progressive
  21. Bits/(Pixel*Frame)             : 0.101
  22. Stream size                    : 3.43 GiB (95%)
  23. Title                          : @至尊宝
  24. Language                       : Chinese
  25. Default                        : Yes
  26. Forced                         : No

  27. Audio #1
  28. ID                             : 2
  29. Format                         : AAC LC SBR
  30. Format/Info                    : Advanced Audio Codec Low Complexity with Spectral Band Replication
  31. Commercial name                : HE-AAC
  32. Format settings                : Explicit
  33. Codec ID                       : A_AAC-2
  34. Duration                       : 1 h 37 min
  35. Bit rate                       : 128 kb/s
  36. Channel(s)                     : 2 channels
  37. Channel layout                 : L R
  38. Sampling rate                  : 48.0 kHz
  39. Frame rate                     : 23.438 FPS (2048 SPF)
  40. Compression mode               : Lossy
  41. Stream size                    : 89.6 MiB (2%)
  42. Title                          : 国语
  43. Language                       : Chinese
  44. Default                        : Yes
  45. Forced                         : No

  46. Audio #2
  47. ID                             : 3
  48. Format                         : AAC LC SBR
  49. Format/Info                    : Advanced Audio Codec Low Complexity with Spectral Band Replication
  50. Commercial name                : HE-AAC
  51. Format settings                : Explicit
  52. Codec ID                       : A_AAC-2
  53. Duration                       : 1 h 37 min
  54. Bit rate                       : 128 kb/s
  55. Channel(s)                     : 2 channels
  56. Channel layout                 : L R
  57. Sampling rate                  : 48.0 kHz
  58. Frame rate                     : 23.438 FPS (2048 SPF)
  59. Compression mode               : Lossy
  60. Stream size                    : 89.6 MiB (2%)
  61. Title                          : 粤语
  62. Language                       : Chinese
  63. Default                        : No
  64. Forced                         : No

  65. Text #1
  66. ID                             : 4
  67. Format                         : ASS
  68. Codec ID                       : S_TEXT/ASS
  69. Codec ID/Info                  : Advanced Sub Station Alpha
  70. Duration                       : 1 h 36 min
  71. Bit rate                       : 158 b/s
  72. Count of elements              : 1569
  73. Compression mode               : Lossless
  74. Stream size                    : 111 KiB (0%)
  75. Title                          : 简体中文ASS
  76. Language                       : Chinese
  77. Default                        : Yes
  78. Forced                         : No

  79. Text #2
  80. ID                             : 5
  81. Format                         : ASS
  82. Codec ID                       : S_TEXT/ASS
  83. Codec ID/Info                  : Advanced Sub Station Alpha
  84. Duration                       : 1 h 36 min
  85. Bit rate                       : 158 b/s
  86. Count of elements              : 1569
  87. Compression mode               : Lossless
  88. Stream size                    : 111 KiB (0%)
  89. Title                          : 繁体中文ASS
  90. Language                       : Chinese
  91. Default                        : No
  92. Forced                         : No

  93. Text #3
  94. ID                             : 6
  95. Format                         : UTF-8
  96. Codec ID                       : S_TEXT/UTF8
  97. Codec ID/Info                  : UTF-8 Plain Text
  98. Duration                       : 1 h 36 min
  99. Bit rate                       : 53 b/s
  100. Count of elements              : 1570
  101. Stream size                    : 37.4 KiB (0%)
  102. Title                          : 简体中文SRT
  103. Language                       : Chinese
  104. Default                        : No
  105. Forced                         : No

  106. Text #4
  107. ID                             : 7
  108. Format                         : UTF-8
  109. Codec ID                       : S_TEXT/UTF8
  110. Codec ID/Info                  : UTF-8 Plain Text
  111. Duration                       : 1 h 36 min
  112. Bit rate                       : 53 b/s
  113. Count of elements              : 1570
  114. Stream size                    : 37.4 KiB (0%)
  115. Title                          : 繁体中文SRT
  116. Language                       : Chinese
  117. Default                        : No
  118. Forced                         : No

复制代码




点击进入百度网盘下载(←购买前请先验证分享链接是否有效)



此处内容付费可见

此处内容需要向楼主支付盘币或购买VIP才能显示 已有 140 人购买 

支付 12 盘币 升级VIP


该资源其他网盘分享渠道→点此了解功能详情

使用115网盘下载(来自 至尊宝c 的分享,下载需要单独支付 12 盘币)

免责申明 - 论坛版权1、本站所有资源均来自会员分享或网络收集整理,仅供会员交流学习,禁用商业用途或盈利,下载后请在24小时之内删除;
2、本站(www.pan6.com)支持正版,本资源版权归版权方所有,观看或阅读请到相应机构购买正版资源;
3、本站资源均来源于网络,本站不参与录制、上传,如本帖侵犯到任何版权问题,请立即告知本站(admin#pan6.com(#=@)),本站将及时予与删除并致以最深的歉意;

点赞

参与人数 3热心值 +3

资源给力! + 1

支持楼主! + 1

给力资源,感谢分享! + 1

查看点赞详情

楼主热贴推荐
华语影视爱好者
BT资源无法下载:戳这里,不会发帖、金币相关等新手问题:戳这里
回复

拉黑 使用道具 举报

为保留有用回复信息,此处有 140 个购买者的感谢留言已隐藏

主题
1
活跃值
6578
热心值
0
盘币
7
注册时间
2017-1-9
最后登录
2021-12-3
在线时间
103 小时

老会员勋章长期在线灌水之王

发表于 2021-6-26 08:54:11 | 显示全部楼层
这个还真没印象了
回复

拉黑 使用道具 举报

主题
9
活跃值
1928
热心值
0
盘币
116
注册时间
2018-2-11
最后登录
2021-12-3
在线时间
64 小时
发表于 2021-6-26 09:58:36 | 显示全部楼层
谢谢楼主分享
回复

拉黑 使用道具 举报

主题
33
活跃值
876
热心值
25
盘币
1248
注册时间
2015-8-25
最后登录
2021-12-3
在线时间
182 小时
发表于 2021-6-26 17:06:20 | 显示全部楼层
清晰就是好啊,谢谢楼主
回复

拉黑 使用道具 举报

主题
7
活跃值
353
热心值
1
盘币
287
注册时间
2017-12-2
最后登录
2021-11-27
在线时间
264 小时
发表于 2021-6-26 18:19:31 | 显示全部楼层
手打字幕点赞
回复

拉黑 使用道具 举报

主题
1
活跃值
138
热心值
0
盘币
246
注册时间
2018-11-22
最后登录
2021-12-3
在线时间
148 小时
发表于 2021-6-26 20:22:11 来自手机 | 显示全部楼层
李若彤的电影必看!经典!
回复

拉黑 使用道具 举报

主题
6
活跃值
1281
热心值
3
盘币
394
注册时间
2020-2-2
最后登录
2021-12-3
在线时间
116 小时
发表于 2021-6-28 14:24:53 | 显示全部楼层
12 个币啊,宝总要降一些啊
回复

拉黑 使用道具 举报

主题
2960
活跃值
20687
热心值
2407
盘币
437472
注册时间
2018-4-7
最后登录
2021-12-3
在线时间
1697 小时

长期在线阳光心情老会员勋章鼎力支持我是土豪优秀会员普通精华热心人士爱心满满灌水之王荣誉会员资源组成员动漫达人夜猫子

 楼主| 发表于 2021-6-28 14:56:52 | 显示全部楼层
vangur 发表于 2021-6-28 14:24
12 个币啊,宝总要降一些啊

敲字幕好辛苦哦,支持下呗

点评

支持楼主,港片最好有国配字幕,辛苦了  发表于 2021-6-29 14:28
华语影视爱好者
回复

拉黑 使用道具 举报

主题
1
活跃值
89
热心值
0
盘币
275
注册时间
2017-11-20
最后登录
2021-11-27
在线时间
14 小时
发表于 2021-6-30 19:28:21 | 显示全部楼层

这个还真没印象了
回复

拉黑 使用道具 举报

主题
29
活跃值
1901
热心值
33
盘币
263
注册时间
2017-9-28
最后登录
2021-12-3
在线时间
341 小时

长期在线阳光心情老会员勋章

发表于 2021-6-30 20:04:40 | 显示全部楼层
李婉华还是挺好的
回复

拉黑 使用道具 举报

主题
0
活跃值
2236
热心值
0
盘币
57
注册时间
2017-5-20
最后登录
2021-12-3
在线时间
25 小时
发表于 2021-7-2 14:20:41 | 显示全部楼层
感谢楼主的分享!!
回复

拉黑 使用道具 举报

主题
1
活跃值
10840
热心值
2
盘币
19
注册时间
2015-5-3
最后登录
2021-12-3
在线时间
588 小时
发表于 2021-7-12 11:17:24 | 显示全部楼层
谢谢楼主分享
回复

拉黑 使用道具 举报

主题
0
活跃值
765
热心值
0
盘币
1205
注册时间
2020-12-2
最后登录
2021-12-3
在线时间
132 小时
发表于 2021-8-28 15:23:57 | 显示全部楼层
谢谢分享,这个无台标、无水印的版本适合收藏哈。
回复

拉黑 使用道具 举报

严禁灌水、讽刺、挖苦、辱骂分享者行为。回复前请详读:点击进入 理性回复,以免永久封禁。
您需要登录后才可以回帖 登录 | 加入论坛

本版积分规则

免责声明:本站所有资源均收集自互联网,没有提供影片资源存储,也未参与录制、上传。若本站收录的资源涉及您的版权或知识产权或其他利益,请附上版权证明邮件告知,在收到邮件后24小时内删除。

Copyright © 2012 [盘乐网] 管理员邮箱:admin#pan6.com(#=@)

站长信箱|sitemap|手机版|小黑屋|百度统计|盘乐网 ( 粤ICP备18120611号 )

快速回复 返回顶部 返回列表