盘乐网

 找回密码
 加入论坛
提示:多个关键词中间加空格 例如:天龙八部 星河
查看: 476|回复: 53

[BD-1080P] [美国][2003][防弹武僧][周润发/西恩·威廉·斯科特][动作][国英语简繁软中字][1080P][MKV/8.41G][美版蓝光修复无水印] 含百度网盘 含115网盘

  [复制链接]

主题
2932
活跃值
20619
热心值
2394
盘币
431232
注册时间
2018-4-7
最后登录
2021-12-1
在线时间
1688 小时

长期在线阳光心情老会员勋章鼎力支持我是土豪优秀会员普通精华热心人士爱心满满灌水之王荣誉会员资源组成员动漫达人夜猫子

发表于 2021-6-27 10:04:29 | 显示全部楼层 |阅读模式
请尊重分享者,本资源仅限交流未经楼主同意严禁转载或盈利,违者封号处理!
p2613637620_gaitubao_455x623.jpg
◎译  名 防弹武僧 / 刀枪不入一僧尼 / 刀枪不入一武僧 / 幻谱
◎片  名 Bulletproof Monk
◎年  代 2003
◎产  地 美国
◎类  别 喜剧 / 动作 / 冒险
◎语  言 英语 / 藏语 / 德语
◎上映日期 2003-04-16(美国)
◎IMDb评分  5.5/10 from 47851 users
◎IMDb链接  https://www.imdb.com/title/tt0245803
◎豆瓣评分 5.3/10 from 20598 users
◎豆瓣链接 https://movie.douban.com/subject/1303693/
◎片  长 104 分钟
◎导  演 保罗·亨特 Paul Hunter
◎编  剧 塞卢斯·沃瑞斯 Cyrus Voris / 伊森·瑞弗 Ethan Reiff
◎主  演 周润发 Yun-Fat Chow
       西恩·威廉·斯科特 Seann William Scott
       杰米·金 Jaime King
       林益盛 Yisheng Lin
       克里斯·柯林斯 K.C. Collins
       张鹏 Peng Zhang
       Patrick Hagarty
       Suresh John
       岩松信 Makoto Iwamatsu
       袁罗素 Russell Yuen
       马特伯尔曼 Matt Birman
       肖恩·贝尔 Sean Bell
       Tommy Chang
       麦克·多普德 Mike Dopud
       Henry Korhonen
       卡瑞尔·罗登 Karel Roden
       Michael Cameron
       Alan Tang
       Joyce Kirkconnell
       Lloyd Adams
       查得·卡米列里 Chad Camilleri
       约翰·麦克唐纳 John MacDonald


◎标  签 动作 | 周润发 | 美国 | 科幻 | 美国电影 | 2003 | 防弹武僧 | 电影

◎简  介  

  一卷神秘的中国古代卷轴,由于蕴藏着巨大的力量,邪恶的坏蛋们个个都想得到它来统治世界;一个来自中国西藏的无名武僧(周润发 饰),为了保护着卷卷轴,一直过着颠沛流离的生活,他几乎躲遍了世界的每一个角落。直到有一天,武僧觉得累了,于是,他开始物色合适的人成为自己的弟子,将这个艰巨的任务继承下去。街头混混卡尔(西恩•威廉•斯科特 Seann William Scott 饰)偶然中帮武僧解了围,或许是心灵感应,武僧感应到这个混小子就是自己的传人了,于是决定将一身武功传给卡尔。卡尔开始了他对抗邪恶的艰难宿命。


◎截    图
防弹武僧.2003.BDRip.Bulletproof Monk.USA.DTS.mkv_20210627_000432.375.jpg 防弹武僧.2003.BDRip.Bulletproof Monk.USA.DTS.mkv_20210627_000416.583.jpg 防弹武僧.2003.BDRip.Bulletproof Monk.USA.DTS.mkv_20210627_000353.575.jpg 防弹武僧.2003.BDRip.Bulletproof Monk.USA.DTS.mkv_20210627_000330.568.jpg

防弹武僧.2003.BDRip.Bulletproof Monk.USA.DTS.mkv.jpg

  1. Video
  2. ID                             : 1
  3. Format                         : AVC
  4. Format/Info                    : Advanced Video Codec
  5. Format profile                 : High@L4.1
  6. Format settings                : CABAC / 5 Ref Frames
  7. Format settings, CABAC         : Yes
  8. Format settings, Reference fra : 5 frames
  9. Codec ID                       : V_MPEG4/ISO/AVC
  10. Duration                       : 1 h 43 min
  11. Bit rate                       : 9 457 kb/s
  12. Width                          : 1 920 pixels
  13. Height                         : 816 pixels
  14. Display aspect ratio           : 2.35:1
  15. Frame rate mode                : Constant
  16. Frame rate                     : 23.976 (23976/1000) FPS
  17. Color space                    : YUV
  18. Chroma subsampling             : 4:2:0
  19. Bit depth                      : 8 bits
  20. Scan type                      : Progressive
  21. Bits/(Pixel*Frame)             : 0.252
  22. Stream size                    : 6.84 GiB (81%)
  23. Title                          : @至尊宝
  24. Writing library                : x264 core 84 r1416 fcf70c2
  25. Encoding settings              : cabac=1 / ref=5 / deblock=1:0:0 / analyse=0x3:0x133 / me=umh / subme=8 / psy=1 / psy_rd=1.0:0.0 / mixed_ref=1 / me_range=16 / chroma_me=1 / trellis=1 / 8x8dct=1 / cqm=0 / deadzone=21,11 / fast_pskip=0 / chroma_qp_offset=-2 / threads=12 / sliced_threads=0 / nr=0 / decimate=1 / mbaff=0 / constrained_intra=0 / bframes=3 / b_pyramid=0 / b_adapt=1 / b_bias=0 / direct=1 / wpredb=1 / wpredp=2 / keyint=250 / keyint_min=25 / scenecut=40 / intra_refresh=0 / rc_lookahead=40 / rc=2pass / mbtree=1 / bitrate=9457 / ratetol=1.0 / qcomp=0.60 / qpmin=10 / qpmax=51 / qpstep=4 / cplxblur=20.0 / qblur=0.5 / ip_ratio=1.40 / aq=1:1.00
  26. Language                       : Chinese
  27. Default                        : No
  28. Forced                         : No

  29. Audio #1
  30. ID                             : 2
  31. Format                         : DTS
  32. Format/Info                    : Digital Theater Systems
  33. Codec ID                       : A_DTS
  34. Duration                       : 1 h 43 min
  35. Bit rate mode                  : Constant
  36. Bit rate                       : 1 509 kb/s
  37. Channel(s)                     : 6 channels
  38. Channel layout                 : C L R Ls Rs LFE
  39. Sampling rate                  : 48.0 kHz
  40. Frame rate                     : 93.750 FPS (512 SPF)
  41. Bit depth                      : 24 bits
  42. Compression mode               : Lossy
  43. Stream size                    : 1.09 GiB (13%)
  44. Title                          : 英语
  45. Language                       : English
  46. Default                        : Yes
  47. Forced                         : No

  48. Audio #2
  49. ID                             : 3
  50. Format                         : AC-3
  51. Format/Info                    : Audio Coding 3
  52. Commercial name                : Dolby Digital
  53. Codec ID                       : A_AC3
  54. Duration                       : 1 h 43 min
  55. Bit rate mode                  : Constant
  56. Bit rate                       : 640 kb/s
  57. Channel(s)                     : 2 channels
  58. Channel layout                 : L R
  59. Sampling rate                  : 48.0 kHz
  60. Frame rate                     : 31.250 FPS (1536 SPF)
  61. Compression mode               : Lossy
  62. Stream size                    : 475 MiB (6%)
  63. Title                          : 国语
  64. Language                       : Chinese
  65. Service kind                   : Complete Main
  66. Default                        : No
  67. Forced                         : No

  68. Text #1
  69. ID                             : 4
  70. Format                         : UTF-8
  71. Codec ID                       : S_TEXT/UTF8
  72. Codec ID/Info                  : UTF-8 Plain Text
  73. Duration                       : 1 h 36 min
  74. Bit rate                       : 31 b/s
  75. Count of elements              : 904
  76. Stream size                    : 22.5 KiB (0%)
  77. Title                          : 简体
  78. Language                       : Chinese
  79. Default                        : Yes
  80. Forced                         : No

  81. Text #2
  82. ID                             : 5
  83. Format                         : UTF-8
  84. Codec ID                       : S_TEXT/UTF8
  85. Codec ID/Info                  : UTF-8 Plain Text
  86. Duration                       : 1 h 36 min
  87. Bit rate                       : 31 b/s
  88. Count of elements              : 904
  89. Stream size                    : 22.5 KiB (0%)
  90. Title                          : 繁体
  91. Language                       : Chinese
  92. Default                        : No
  93. Forced                         : No

  94. Text #3
  95. ID                             : 6
  96. Format                         : UTF-8
  97. Codec ID                       : S_TEXT/UTF8
  98. Codec ID/Info                  : UTF-8 Plain Text
  99. Duration                       : 1 h 36 min
  100. Bit rate                       : 70 b/s
  101. Count of elements              : 904
  102. Stream size                    : 49.8 KiB (0%)
  103. Title                          : 腾祥嘉丽中圆简体
  104. Language                       : Chinese
  105. Default                        : No
  106. Forced                         : No

  107. Text #4
  108. ID                             : 7
  109. Format                         : UTF-8
  110. Codec ID                       : S_TEXT/UTF8
  111. Codec ID/Info                  : UTF-8 Plain Text
  112. Duration                       : 1 h 36 min
  113. Bit rate                       : 70 b/s
  114. Count of elements              : 904
  115. Stream size                    : 49.8 KiB (0%)
  116. Title                          : 腾祥嘉丽中圆繁体
  117. Language                       : Chinese
  118. Default                        : No
  119. Forced                         : No

复制代码



◎资源链接;
点击进入百度网盘下载(←购买前请先验证分享链接是否有效)


此处内容付费可见

此处内容需要向楼主支付盘币或购买VIP才能显示 已有 51 人购买 

支付 3 盘币 升级VIP


该资源其他网盘分享渠道→点此了解功能详情

使用115网盘下载(来自 至尊宝c 的分享,下载需要单独支付 3 盘币)

免责申明 - 论坛版权1、本站所有资源均来自会员分享或网络收集整理,仅供会员交流学习,禁用商业用途或盈利,下载后请在24小时之内删除;
2、本站(www.pan6.com)支持正版,本资源版权归版权方所有,观看或阅读请到相应机构购买正版资源;
3、本站资源均来源于网络,本站不参与录制、上传,如本帖侵犯到任何版权问题,请立即告知本站(admin#pan6.com(#=@)),本站将及时予与删除并致以最深的歉意;
楼主热贴推荐
华语影视爱好者
BT资源无法下载:戳这里,不会发帖、金币相关等新手问题:戳这里
回复

拉黑 使用道具 举报

为保留有用回复信息,此处有 51 个购买者的感谢留言已隐藏

主题
0
活跃值
82
热心值
0
盘币
740
注册时间
2019-4-25
最后登录
2021-11-30
在线时间
172 小时
发表于 2021-6-27 12:28:09 | 显示全部楼层
这可应该可以,这电影好多片源对比度不够,这个好像可以
回复

拉黑 使用道具 举报

主题
7
活跃值
4873
热心值
6
盘币
445
注册时间
2017-1-14
最后登录
2021-11-30
在线时间
67 小时

老会员勋章

发表于 2021-6-27 20:43:21 | 显示全部楼层
支持一下
回复

拉黑 使用道具 举报

严禁灌水、讽刺、挖苦、辱骂分享者行为。回复前请详读:点击进入 理性回复,以免永久封禁。
您需要登录后才可以回帖 登录 | 加入论坛

本版积分规则

免责声明:本站所有资源均收集自互联网,没有提供影片资源存储,也未参与录制、上传。若本站收录的资源涉及您的版权或知识产权或其他利益,请附上版权证明邮件告知,在收到邮件后24小时内删除。

Copyright © 2012 [盘乐网] 管理员邮箱:admin#pan6.com(#=@)

站长信箱|sitemap|手机版|小黑屋|百度统计|盘乐网 ( 粤ICP备18120611号 )

快速回复 返回顶部 返回列表