盘乐网

 找回密码
 加入论坛
提示:多个关键词中间加空格 例如:天龙八部 星河
查看: 759|回复: 75

[BD-1080P] [中国香港][1988][霸王花][胡慧中/惠英红/罗芙洛][动作][国粤语简繁软中字][1080P][MKV/7.93G][港版蓝光修复无水印] 含百度网盘 含115网盘

  [复制链接]

主题
2932
活跃值
20619
热心值
2394
盘币
431256
注册时间
2018-4-7
最后登录
2021-12-1
在线时间
1688 小时

长期在线阳光心情老会员勋章鼎力支持我是土豪优秀会员普通精华热心人士爱心满满灌水之王荣誉会员资源组成员动漫达人夜猫子

发表于 2021-7-1 15:25:41 | 显示全部楼层 |阅读模式
请尊重分享者,本资源仅限交流未经楼主同意严禁转载或盈利,违者封号处理!
p2081177319_gaitubao_455x691.jpg
◎译  名 Lady Enforcers / 霸王花与霸王花
◎片  名 霸王花
◎年  代 1988
◎产  地 中国香港
◎类  别 动作
◎语  言 汉语普通话/粤语
◎上映日期 1988-06-03(中国香港)
◎IMDb评分  5.9/10 from 441 users
◎IMDb链接  https://www.imdb.com/title/tt0094694
◎豆瓣评分 6.9/10 from 13922 users
◎豆瓣链接 https://movie.douban.com/subject/1408315/
◎片  长 91分钟
◎导  演 钱升玮 Wellson Chin
◎编  剧 郑锦富 Kam Fu Cheng / 邝文伟 Abe Kwong
◎主  演 胡慧中 Sibelle Hu
       惠英红 Kara Wai Ying Hung
       罗芙洛 Cynthia Rothrock
       柏安妮 Ann Bridgewater
       杜德伟 Alex To
       吴君如 Sandra Ng
       陈雅伦 Ellen Chan
       简慧真 Regina Kent
       丁宁 Ning Ding
       陈佩珊 Joanna Chan Pui-San
       冯淬帆 Stanley Fung
       楼南光 Billy Lau
       董骠 Bill Tung
       周文健 Michael Chow Man-Kin
       成奎安 Fui-On Shing
       卢惠光 Ken Lo
       黎明诗 Ming-Si Lai
       Jeffrey Falcon
       方茹 Ju Fang
       火星 Mars
       许冠英 Ricky Hui


◎标  签 香港 | 动作 | 香港电影 | 喜剧 | 胡慧中 | 吴君如 | 警匪 | 1988

◎简  介  

  香港以前本来没有女子特警队,但因为Madam胡(胡慧中 饰)和Madam罗(罗芙洛 饰)两名女警长的出色表现,令到警局高层决定以她们为班底,组建有史以来第一支女子特警队——霸王花。Madam胡和Madam罗分别担任队长带队训练。女子特警队的训练一点也不比飞虎队轻松,在两人的严格训练下,霸王花很快就能出动执行任务了。岂料在和飞虎队一起执行一次保护珠宝任务时,Madam胡领军的霸王花被飞虎队均被国际大盗制伏。紧要关头,Madam罗率队赶到!

◎获奖情况  

  第8届香港电影金像奖(1989)
  最佳新演员(提名) 吴君如


◎截    图
霸王花.1988.BDRip. Lady Enforcers.HKG.2AC3.mkv_20210701_141419.604.jpg 霸王花.1988.BDRip. Lady Enforcers.HKG.2AC3.mkv_20210701_141406.200.jpg 霸王花.1988.BDRip. Lady Enforcers.HKG.2AC3.mkv_20210701_141457.099.jpg 霸王花.1988.BDRip. Lady Enforcers.HKG.2AC3.mkv_20210701_141432.767.jpg

霸王花.1988.BDRip. Lady Enforcers.HKG.2AC3.mkv.jpg

  1. Video
  2. ID                             : 1
  3. Format                         : AVC
  4. Format/Info                    : Advanced Video Codec
  5. Format profile                 : High@L4.1
  6. Format settings                : CABAC / 4 Ref Frames
  7. Format settings, CABAC         : Yes
  8. Format settings, Reference fra : 4 frames
  9. Codec ID                       : V_MPEG4/ISO/AVC
  10. Duration                       : 1 h 35 min
  11. Bit rate                       : 10.6 Mb/s
  12. Width                          : 1 920 pixels
  13. Height                         : 1 014 pixels
  14. Display aspect ratio           : 1.893
  15. Frame rate mode                : Constant
  16. Frame rate                     : 23.976 (23976/1000) FPS
  17. Color space                    : YUV
  18. Chroma subsampling             : 4:2:0
  19. Bit depth                      : 8 bits
  20. Scan type                      : Progressive
  21. Bits/(Pixel*Frame)             : 0.228
  22. Stream size                    : 7.07 GiB (89%)
  23. Title                          : 盘乐网@至尊宝
  24. Writing library                : x264 core 116 r2037+593 ba36cdb
  25. Encoding settings              : cabac=1 / ref=4 / deblock=1:-3:-3 / analyse=0x3:0x113 / me=umh / subme=9 / psy=1 / fade_compensate=0.00 / psy_rd=1.05:0.10 / mixed_ref=1 / me_range=32 / chroma_me=1 / trellis=2 / 8x8dct=1 / cqm=1 / deadzone=21,11 / fast_pskip=0 / chroma_qp_offset=-2 / threads=12 / sliced_threads=0 / nr=0 / decimate=1 / interlaced=0 / bluray_compat=0 / constrained_intra=0 / fgo=0 / bframes=6 / b_pyramid=2 / b_adapt=2 / b_bias=0 / direct=3 / weightb=1 / open_gop=0 / weightp=2 / keyint=250 / keyint_min=23 / scenecut=40 / intra_refresh=0 / rc_lookahead=60 / rc=2pass / mbtree=1 / bitrate=10632 / ratetol=2.0 / qcomp=0.70 / qpmin=3 / qpmax=69 / qpstep=4 / cplxblur=20.0 / qblur=0.5 / vbv_maxrate=40000 / vbv_bufsize=30000 / nal_hrd=none / ip_ratio=1.40 / aq=1:1.00
  26. Language                       : Chinese
  27. Default                        : Yes
  28. Forced                         : Yes

  29. Audio #1
  30. ID                             : 2
  31. Format                         : AC-3
  32. Format/Info                    : Audio Coding 3
  33. Commercial name                : Dolby Digital
  34. Codec ID                       : A_AC3
  35. Duration                       : 1 h 35 min
  36. Bit rate mode                  : Constant
  37. Bit rate                       : 640 kb/s
  38. Channel(s)                     : 6 channels
  39. Channel layout                 : L R C LFE Ls Rs
  40. Sampling rate                  : 48.0 kHz
  41. Frame rate                     : 31.250 FPS (1536 SPF)
  42. Compression mode               : Lossy
  43. Stream size                    : 435 MiB (5%)
  44. Title                          : 国语
  45. Language                       : Chinese
  46. Service kind                   : Complete Main
  47. Default                        : Yes
  48. Forced                         : No

  49. Audio #2
  50. ID                             : 3
  51. Format                         : AC-3
  52. Format/Info                    : Audio Coding 3
  53. Commercial name                : Dolby Digital
  54. Codec ID                       : A_AC3
  55. Duration                       : 1 h 35 min
  56. Bit rate mode                  : Constant
  57. Bit rate                       : 640 kb/s
  58. Channel(s)                     : 6 channels
  59. Channel layout                 : L R C LFE Ls Rs
  60. Sampling rate                  : 48.0 kHz
  61. Frame rate                     : 31.250 FPS (1536 SPF)
  62. Compression mode               : Lossy
  63. Stream size                    : 435 MiB (5%)
  64. Title                          : 粤语
  65. Language                       : Chinese
  66. Service kind                   : Complete Main
  67. Default                        : No
  68. Forced                         : Yes

  69. Text #1
  70. ID                             : 4
  71. Format                         : UTF-8
  72. Codec ID                       : S_TEXT/UTF8
  73. Codec ID/Info                  : UTF-8 Plain Text
  74. Duration                       : 1 h 32 min
  75. Bit rate                       : 54 b/s
  76. Count of elements              : 1365
  77. Stream size                    : 37.4 KiB (0%)
  78. Title                          : 简体
  79. Language                       : Chinese
  80. Default                        : Yes
  81. Forced                         : No

  82. Text #2
  83. ID                             : 5
  84. Format                         : UTF-8
  85. Codec ID                       : S_TEXT/UTF8
  86. Codec ID/Info                  : UTF-8 Plain Text
  87. Duration                       : 1 h 32 min
  88. Bit rate                       : 54 b/s
  89. Count of elements              : 1365
  90. Stream size                    : 37.4 KiB (0%)
  91. Title                          : 繁体
  92. Language                       : Chinese
  93. Default                        : No
  94. Forced                         : No

  95. Text #3
  96. ID                             : 6
  97. Format                         : UTF-8
  98. Codec ID                       : S_TEXT/UTF8
  99. Codec ID/Info                  : UTF-8 Plain Text
  100. Duration                       : 1 h 32 min
  101. Bit rate                       : 115 b/s
  102. Count of elements              : 1365
  103. Stream size                    : 78.7 KiB (0%)
  104. Title                          : 腾祥嘉丽中圆简体
  105. Language                       : Chinese
  106. Default                        : No
  107. Forced                         : No

  108. Text #4
  109. ID                             : 7
  110. Format                         : UTF-8
  111. Codec ID                       : S_TEXT/UTF8
  112. Codec ID/Info                  : UTF-8 Plain Text
  113. Duration                       : 1 h 32 min
  114. Bit rate                       : 115 b/s
  115. Count of elements              : 1365
  116. Stream size                    : 78.7 KiB (0%)
  117. Title                          : 腾祥嘉丽中圆繁体
  118. Language                       : Chinese
  119. Default                        : No
  120. Forced                         : No

复制代码



◎资源链接:
点击进入百度网盘下载(←购买前请先验证分享链接是否有效)


此处内容付费可见

此处内容需要向楼主支付盘币或购买VIP才能显示 已有 73 人购买 

支付 5 盘币 升级VIP


该资源其他网盘分享渠道→点此了解功能详情

使用115网盘下载(来自 至尊宝c 的分享,下载需要单独支付 5 盘币)

免责申明 - 论坛版权1、本站所有资源均来自会员分享或网络收集整理,仅供会员交流学习,禁用商业用途或盈利,下载后请在24小时之内删除;
2、本站(www.pan6.com)支持正版,本资源版权归版权方所有,观看或阅读请到相应机构购买正版资源;
3、本站资源均来源于网络,本站不参与录制、上传,如本帖侵犯到任何版权问题,请立即告知本站(admin#pan6.com(#=@)),本站将及时予与删除并致以最深的歉意;

点赞

参与人数 3热心值 +3

给力资源,感谢分享! + 1

给力资源,感谢分享! + 1

楼主霸气! + 1

查看点赞详情

楼主热贴推荐
华语影视爱好者
BT资源无法下载:戳这里,不会发帖、金币相关等新手问题:戳这里
回复

拉黑 使用道具 举报

为保留有用回复信息,此处有 73 个购买者的感谢留言已隐藏

主题
1
活跃值
6575
热心值
0
盘币
5
注册时间
2017-1-9
最后登录
2021-12-1
在线时间
103 小时

老会员勋章长期在线灌水之王

发表于 2021-7-1 18:01:30 | 显示全部楼层
这个好看啊
回复

拉黑 使用道具 举报

主题
143
活跃值
1137
热心值
111
盘币
512
注册时间
2020-11-16
最后登录
2021-12-1
在线时间
352 小时

长期在线阳光心情老会员勋章热心人士灌水之王

发表于 2021-7-30 22:25:00 | 显示全部楼层
建议楼主以后把一个系列的一起发吧。点到手都累了 哈哈
本人 90-10的港
回复

拉黑 使用道具 举报

严禁灌水、讽刺、挖苦、辱骂分享者行为。回复前请详读:点击进入 理性回复,以免永久封禁。
您需要登录后才可以回帖 登录 | 加入论坛

本版积分规则

免责声明:本站所有资源均收集自互联网,没有提供影片资源存储,也未参与录制、上传。若本站收录的资源涉及您的版权或知识产权或其他利益,请附上版权证明邮件告知,在收到邮件后24小时内删除。

Copyright © 2012 [盘乐网] 管理员邮箱:admin#pan6.com(#=@)

站长信箱|sitemap|手机版|小黑屋|百度统计|盘乐网 ( 粤ICP备18120611号 )

快速回复 返回顶部 返回列表