盘乐网

 找回密码
 加入论坛
提示:多个关键词中间加空格 例如:天龙八部 星河
查看: 359|回复: 45

[BD-1080P] [中国内地][2010][大兵小将][成龙/王力宏/刘承俊][动作][国英语简繁软中字][1080P][MKV/5.02G][英版蓝光修复无水印][FRDS] 含百度网盘 含115网盘

  [复制链接]

主题
3186
活跃值
21641
热心值
2604
盘币
363691
注册时间
2018-4-7
最后登录
2022-1-21
在线时间
1797 小时

长期在线阳光心情老会员勋章鼎力支持我是土豪优秀会员普通精华热心人士爱心满满灌水之王荣誉会员资源组成员动漫达人夜猫子

发表于 2021-7-6 15:23:14 | 显示全部楼层 |阅读模式
请尊重分享者,本资源仅限交流未经楼主同意严禁转载或盈利,违者封号处理!
p1682724612_gaitubao_455x580.jpg
◎译  名 Little Big Soldier
◎片  名 大兵小将
◎年  代 2010
◎产  地 中国内地 / 中国香港
◎类  别 喜剧 / 动作 / 冒险
◎语  言 汉语普通话
◎上映日期 2010-02-14(中国内地)
◎IMDb评分  6.9/10 from 14656 users
◎IMDb链接  https://www.imdb.com/title/tt1319718
◎豆瓣评分 6.8/10 from 138232 users
◎豆瓣链接 https://movie.douban.com/subject/3279107/
◎片  长 96分钟
◎导  演 丁晟 Sheng Ding
◎编  剧 丁晟 Sheng Ding
◎主  演 成龙 Jackie Chan
       王力宏 Lee-Hom Wang
       刘承俊 Sung-jun Yoo
       杜玉明 Yuming Du
       林鹏 Peng Lin
       徐冬梅 Dongmei Xu
       王宝强 Baoqiang Wang
       于荣光 Ringo Yu
       卢惠光 Ken Lo
       晋松 Song Jin
       吴樾 Yue Wu
       季冠霖 Guanlin Ji
       钢特木尔 Gangtemuer
       杨政 Zheng Yang
       牛犇 Ben Niu
       许凝 Rick Xu


◎标  签 动作 | 喜剧 | 古装 | 香港 | 战争 | 搞笑 | 2010 | 笑中带泪

◎简  介  

  公元前227年,卫国军队在凤凰山遭遇梁军伏击,血战之后惟有受重伤的卫国大将军(王力宏 饰)和装死的梁国士兵(成龙 饰)二人存活。将军有着统一诸国的宏图壮志,而小兵只想过自己的太平日子。小兵活捉大将,企图带着大将回到梁国,换良田五亩从此过上永无兵役的幸福生活。从凤凰山到梁国的路上,前有无数未知风险,后有卫国神秘小队追踪,小兵靠着美好信念的支撑以及自己的小聪明一次次化解危机,然而,在到达梁国之时小兵却出人意料的放大将返回卫国。小兵在江畔目送大将驾小舟渐渐远去,可是他并不知道在身后梁国的土地上,发生了一场天翻地覆的变化……


◎截    图
大兵小将.2010.BDRip.Little Big Soldier.GBR.2DTS.FRDS.mkv_20210706_134516.342.jpg 大兵小将.2010.BDRip.Little Big Soldier.GBR.2DTS.FRDS.mkv_20210706_134450.762.jpg 大兵小将.2010.BDRip.Little Big Soldier.GBR.2DTS.FRDS.mkv_20210706_134526.217.jpg 大兵小将.2010.BDRip.Little Big Soldier.GBR.2DTS.FRDS.mkv_20210706_134553.752.jpg

大兵小将.2010.BDRip.Little Big Soldier.GBR.2DTS.FRDS.mkv.jpg


  1. Video
  2. ID                             : 1
  3. Format                         : HEVC
  4. Format/Info                    : High Efficiency Video Coding
  5. Format profile                 : Main 10@L4@Main
  6. Codec ID                       : V_MPEGH/ISO/HEVC
  7. Duration                       : 1 h 35 min
  8. Bit rate                       : 6 228 kb/s
  9. Width                          : 1 920 pixels
  10. Height                         : 816 pixels
  11. Display aspect ratio           : 2.35:1
  12. Frame rate mode                : Constant
  13. Frame rate                     : 24.000 FPS
  14. Color space                    : YUV
  15. Chroma subsampling             : 4:2:0
  16. Bit depth                      : 10 bits
  17. Bits/(Pixel*Frame)             : 0.166
  18. Stream size                    : 4.15 GiB (83%)
  19. Writing library                : x265 2.8+1-478bfe2b7673:[Windows][GCC 7.3.0][64 bit] 10bit
  20. Encoding settings              : cpuid=1111039 / frame-threads=4 / numa-pools=16 / wpp / no-pmode / no-pme / no-psnr / no-ssim / log-level=2 / csv / csv-log-level=0 / input-csp=1 / input-res=1920x816 / interlace=0 / total-frames=137410 / level-idc=0 / high-tier=1 / uhd-bd=0 / ref=5 / no-allow-non-conformance / no-repeat-headers / annexb / no-aud / no-hrd / info / hash=0 / no-temporal-layers / no-open-gop / min-keyint=1 / keyint=360 / gop-lookahead=0 / bframes=9 / b-adapt=2 / b-pyramid / bframe-bias=0 / rc-lookahead=60 / lookahead-slices=4 / scenecut=40 / radl=0 / no-intra-refresh / ctu=32 / min-cu-size=8 / rect / no-amp / max-tu-size=16 / tu-inter-depth=2 / tu-intra-depth=2 / limit-tu=4 / rdoq-level=1 / dynamic-rd=0.00 / ssim-rd / signhide / no-tskip / nr-intra=0 / nr-inter=0 / no-constrained-intra / no-strong-intra-smoothing / max-merge=3 / limit-refs=2 / limit-modes / me=3 / subme=5 / merange=25 / temporal-mvp / weightp / weightb / no-analyze-src-pics / deblock=-1:-1 / no-sao / no-sao-non-deblock / rd=4 / no-early-skip / rskip / no-fast-intra / no-tskip-fast / no-cu-lossless / b-intra / no-splitrd-skip / rdpenalty=1 / psy-rd=0.00 / psy-rdoq=5.00 / no-rd-refine / no-lossless / cbqpoffs=-2 / crqpoffs=-2 / rc=crf / crf=18.0 / qcomp=0.70 / qpstep=4 / stats-write=0 / stats-read=0 / ipratio=1.40 / pbratio=1.30 / aq-mode=1 / aq-strength=0.80 / cutree / zone-count=0 / no-strict-cbr / qg-size=16 / no-rc-grain / qpmax=69 / qpmin=0 / no-const-vbv / sar=0 / overscan=0 / videoformat=5 / range=0 / colorprim=1 / transfer=2 / colormatrix=2 / chromaloc=0 / display-window=0 / max-cll=0,0 / min-luma=0 / max-luma=1023 / log2-max-poc-lsb=8 / vui-timing-info / vui-hrd-info / slices=1 / no-opt-qp-pps / no-opt-ref-list-length-pps / no-multi-pass-opt-rps / scenecut-bias=0.05 / no-opt-cu-delta-qp / no-aq-motion / no-hdr / no-hdr-opt / no-dhdr10-opt / no-idr-recovery-sei / analysis-reuse-level=5 / scale-factor=0 / refine-intra=0 / refine-inter=0 / refine-mv=0 / no-limit-sao / ctu-info=0 / no-lowpass-dct / refine-mv-type=0 / copy-pic=1 / max-ausize-factor=1.0 / no-dynamic-refine / no-single-sei
  21. Language                       : Chinese
  22. Default                        : Yes
  23. Forced                         : No
  24. Color range                    : Limited
  25. Color primaries                : BT.709

  26. Audio #1
  27. ID                             : 2
  28. Format                         : AC-3
  29. Format/Info                    : Audio Coding 3
  30. Commercial name                : Dolby Digital
  31. Codec ID                       : A_AC3
  32. Duration                       : 1 h 35 min
  33. Bit rate mode                  : Constant
  34. Bit rate                       : 640 kb/s
  35. Channel(s)                     : 6 channels
  36. Channel layout                 : L R C LFE Ls Rs
  37. Sampling rate                  : 48.0 kHz
  38. Frame rate                     : 31.250 FPS (1536 SPF)
  39. Compression mode               : Lossy
  40. Stream size                    : 437 MiB (9%)
  41. Title                          : 国语
  42. Language                       : Chinese
  43. Service kind                   : Complete Main
  44. Default                        : Yes
  45. Forced                         : No

  46. Audio #2
  47. ID                             : 3
  48. Format                         : AC-3
  49. Format/Info                    : Audio Coding 3
  50. Commercial name                : Dolby Digital
  51. Codec ID                       : A_AC3
  52. Duration                       : 1 h 35 min
  53. Bit rate mode                  : Constant
  54. Bit rate                       : 640 kb/s
  55. Channel(s)                     : 6 channels
  56. Channel layout                 : L R C LFE Ls Rs
  57. Sampling rate                  : 48.0 kHz
  58. Frame rate                     : 31.250 FPS (1536 SPF)
  59. Compression mode               : Lossy
  60. Stream size                    : 437 MiB (9%)
  61. Title                          : 英语
  62. Language                       : English
  63. Service kind                   : Complete Main
  64. Default                        : No
  65. Forced                         : No

  66. Text #1
  67. ID                             : 4
  68. Format                         : UTF-8
  69. Codec ID                       : S_TEXT/UTF8
  70. Codec ID/Info                  : UTF-8 Plain Text
  71. Duration                       : 1 h 31 min
  72. Bit rate                       : 25 b/s
  73. Count of elements              : 821
  74. Stream size                    : 16.9 KiB (0%)
  75. Title                          : 简体
  76. Language                       : Chinese
  77. Default                        : Yes
  78. Forced                         : No

  79. Text #2
  80. ID                             : 5
  81. Format                         : UTF-8
  82. Codec ID                       : S_TEXT/UTF8
  83. Codec ID/Info                  : UTF-8 Plain Text
  84. Duration                       : 1 h 31 min
  85. Bit rate                       : 25 b/s
  86. Count of elements              : 821
  87. Stream size                    : 16.9 KiB (0%)
  88. Title                          : 繁体
  89. Language                       : Chinese
  90. Default                        : No
  91. Forced                         : No

  92. Text #3
  93. ID                             : 6
  94. Format                         : UTF-8
  95. Codec ID                       : S_TEXT/UTF8
  96. Codec ID/Info                  : UTF-8 Plain Text
  97. Duration                       : 1 h 31 min
  98. Bit rate                       : 62 b/s
  99. Count of elements              : 821
  100. Stream size                    : 41.8 KiB (0%)
  101. Title                          : 腾祥嘉丽中圆简体
  102. Language                       : Chinese
  103. Default                        : No
  104. Forced                         : No

  105. Text #4
  106. ID                             : 7
  107. Format                         : UTF-8
  108. Codec ID                       : S_TEXT/UTF8
  109. Codec ID/Info                  : UTF-8 Plain Text
  110. Duration                       : 1 h 31 min
  111. Bit rate                       : 62 b/s
  112. Count of elements              : 821
  113. Stream size                    : 41.8 KiB (0%)
  114. Title                          : 腾祥嘉丽中圆繁体
  115. Language                       : Chinese
  116. Default                        : No
  117. Forced                         : No

  118. Menu
  119. 00:00:00.000                   : en:Chapter 01
  120. 00:05:22.875                   : en:Chapter 02
  121. 00:11:00.666                   : en:Chapter 03
  122. 00:16:25.125                   : en:Chapter 04
  123. 00:21:04.291                   : en:Chapter 05
  124. 00:25:09.583                   : en:Chapter 06
  125. 00:27:50.083                   : en:Chapter 07
  126. 00:33:17.875                   : en:Chapter 08
  127. 00:37:05.083                   : en:Chapter 09
  128. 00:39:45.791                   : en:Chapter 10
  129. 00:46:02.750                   : en:Chapter 11
  130. 00:51:35.125                   : en:Chapter 12
  131. 00:56:17.708                   : en:Chapter 13
  132. 01:04:04.333                   : en:Chapter 14
  133. 01:11:50.541                   : en:Chapter 15
  134. 01:15:05.375                   : en:Chapter 16
  135. 01:20:06.541                   : en:Chapter 17
  136. 01:22:08.250                   : en:Chapter 18
  137. 01:27:22.666                   : en:Chapter 19
  138. 01:31:52.500                   : en:Chapter 20

复制代码



◎资源链接:
点击进入百度网盘下载(←购买前请先验证分享链接是否有效)


此处内容付费可见

此处内容需要向楼主支付盘币或购买VIP才能显示 已有 45 人购买 

支付 5 盘币 升级VIP


该资源其他网盘分享渠道→点此了解功能详情

使用115网盘下载(来自 至尊宝c 的分享,下载需要单独支付 5 盘币)

免责申明 - 论坛版权1、本站所有资源均来自会员分享或网络收集整理,仅供会员交流学习,禁用商业用途或盈利,下载后请在24小时之内删除;
2、本站(www.pan6.com)支持正版,本资源版权归版权方所有,观看或阅读请到相应机构购买正版资源;
3、本站资源均来源于网络,本站不参与录制、上传,如本帖侵犯到任何版权问题,请立即告知本站(admin#pan6.com(#=@)),本站将及时予与删除并致以最深的歉意;
楼主热贴推荐
华语影视爱好者
BT资源无法下载:戳这里,不会发帖、金币相关等新手问题:戳这里
回复

拉黑 使用道具 举报

为保留有用回复信息,此处有 45 个购买者的感谢留言已隐藏
严禁灌水、讽刺、挖苦、辱骂分享者行为。回复前请详读:点击进入 理性回复,以免永久封禁。
您需要登录后才可以回帖 登录 | 加入论坛

本版积分规则

免责声明:本站所有资源均收集自互联网,没有提供影片资源存储,也未参与录制、上传。若本站收录的资源涉及您的版权或知识产权或其他利益,请附上版权证明邮件告知,在收到邮件后24小时内删除。

Copyright © 2012 [盘乐网] 管理员邮箱:admin#pan6.com(#=@)

站长信箱|sitemap|手机版|小黑屋|百度统计|盘乐网 ( 粤ICP备18120611号 )

快速回复 返回顶部 返回列表