盘乐网

 找回密码
 加入论坛

QQ登录

只需一步,快速开始

提示:多个关键词中间加空格 例如:天龙八部 星河
查看: 546|回复: 45

[WEB-DL] [百度云+115+阿里云][中国香港][1986][杀妻2人组][周润发/钟镇涛/王祖贤][喜剧][国粤语简繁英软中字][1080P][MKV/3.6G][超清修复无水印][iTunes] 含百度网盘 含百度网盘

[复制链接]

主题
2421
活跃值
18082
热心值
1845
盘币
296491
注册时间
2018-4-7
最后登录
2021-7-26
在线时间
1511 小时

长期在线阳光心情老会员勋章鼎力支持我是土豪优秀会员普通精华热心人士爱心满满灌水之王荣誉会员资源组成员动漫达人夜猫子

发表于 2021-7-15 15:27:12 | 显示全部楼层 |阅读模式
请尊重分享者,本资源仅限交流未经楼主同意严禁转载或盈利,违者封号处理!
p2541795075_gaitubao_455x680.jpg
◎译  名 杀妻2人组 / 100 Ways to Murder Your Wife / 小丈夫 / 杀妻二人组
◎片  名 殺妻2人組
◎年  代 1986
◎产  地 中国香港
◎类  别 喜剧
◎语  言 汉语普通话/粤语
◎上映日期 1986-06-05(中国香港)
◎IMDb评分  5.8/10 from 179 users
◎IMDb链接  https://www.imdb.com/title/tt0091935
◎豆瓣评分 6.5/10 from 5744 users
◎豆瓣链接 https://movie.douban.com/subject/1305343/
◎片  长 92分钟
◎导  演 钟镇涛 Kenny Bee
◎编  剧 罗启锐 Alex Law
◎主  演 周润发 Yun-Fat Chow
       钟镇涛 Kenny Bee
       梅艳芳 Anita Mui
       王祖贤 Joey Wong
       王晶 Jing Wong
       陈友 Anthony Chan
       成奎安 Fui-On Shing
       午马 Wu Ma
       林珊珊 Sandy Lamb
       吴康宁 Hong-Ning Ng


◎标  签 周润发 | 香港 | 喜剧 | 王祖贤 | 香港电影 | 梅艳芳 | 钟镇涛 | 1986

◎简  介  

  阿B(钟镇涛饰)、阿发(周润发饰)都是足球好手。阿发来自大马,有个美丽风流的太太(王祖贤饰),常与男生调笑,令阿发又妒忌又焦虑。阿B的太太(梅艳芳饰)则是个脾气暴燥的女人,她时常埋怨阿B没有出息,而且还常常当众奚落他,使阿B面子尽失,自尊心受到伤害。一次阿B受可太太的气,到酒吧饮闷酒,遇到由大马来港的阿发,阿发也是不满太太对其他的男人太热情,还怀疑她红杏出墙。阿B、阿发互吐心事后,更觉同病相怜,大家酒醉后竟然发起杀妻之念,二人更密谋出不同的杀妻方法,其中尽情地发挥了小气男人的妒忌妻子的梦幻式惩治杀妻方法,可谓洋洋大观,笑话连篇。二人兴头一起,于是达成口头协议,二人各去对方家里杀掉对方的妻子......


◎截    图
杀妻2人组.1986.WEB-DL.100 Ways to Murder Your Wife.2Audio.iTunes.至尊宝.mkv_2021.jpg 杀妻2人组.1986.WEB-DL.100 Ways to Murder Your Wife.2Audio.iTunes.至尊宝.mkv_2021.jpg 杀妻2人组.1986.WEB-DL.100 Ways to Murder Your Wife.2Audio.iTunes.至尊宝.mkv_2021.jpg 杀妻2人组.1986.WEB-DL.100 Ways to Murder Your Wife.2Audio.iTunes.至尊宝.mkv_2021.jpg

杀妻2人组.1986.WEB-DL.100 Ways to Murder Your Wife.2Audio.iTunes.至尊宝.mkv.jpg

  1. Video
  2. ID                             : 1
  3. Format                         : AVC
  4. Format/Info                    : Advanced Video Codec
  5. Format profile                 : High@L4
  6. Format settings                : CABAC / 4 Ref Frames
  7. Format settings, CABAC         : Yes
  8. Format settings, Reference fra : 4 frames
  9. Codec ID                       : V_MPEG4/ISO/AVC
  10. Duration                       : 1 h 35 min
  11. Bit rate                       : 5 138 kb/s
  12. Width                          : 1 920 pixels
  13. Height                         : 1 036 pixels
  14. Display aspect ratio           : 1.85:1
  15. Frame rate mode                : Constant
  16. Frame rate                     : 23.976 FPS
  17. Color space                    : YUV
  18. Chroma subsampling             : 4:2:0
  19. Bit depth                      : 8 bits
  20. Scan type                      : Progressive
  21. Bits/(Pixel*Frame)             : 0.108
  22. Stream size                    : 3.43 GiB (96%)
  23. Title                          : @至尊宝
  24. Language                       : English
  25. Default                        : Yes
  26. Forced                         : No
  27. Color range                    : Limited
  28. Color primaries                : BT.709
  29. Transfer characteristics       : BT.709
  30. Matrix coefficients            : BT.709

  31. Audio #1
  32. ID                             : 2
  33. Format                         : AAC LC
  34. Format/Info                    : Advanced Audio Codec Low Complexity
  35. Codec ID                       : A_AAC-2
  36. Duration                       : 1 h 35 min
  37. Bit rate                       : 111 kb/s
  38. Channel(s)                     : 2 channels
  39. Channel layout                 : L R
  40. Sampling rate                  : 48.0 kHz
  41. Frame rate                     : 46.875 FPS (1024 SPF)
  42. Compression mode               : Lossy
  43. Delay relative to video        : -42 ms
  44. Stream size                    : 75.9 MiB (2%)
  45. Title                          : 国语
  46. Language                       : Chinese
  47. Default                        : Yes
  48. Forced                         : No

  49. Audio #2
  50. ID                             : 3
  51. Format                         : AAC LC
  52. Format/Info                    : Advanced Audio Codec Low Complexity
  53. Codec ID                       : A_AAC-2
  54. Duration                       : 1 h 35 min
  55. Bit rate                       : 125 kb/s
  56. Channel(s)                     : 2 channels
  57. Channel layout                 : L R
  58. Sampling rate                  : 48.0 kHz
  59. Frame rate                     : 46.875 FPS (1024 SPF)
  60. Compression mode               : Lossy
  61. Delay relative to video        : -42 ms
  62. Stream size                    : 85.8 MiB (2%)
  63. Title                          : 粤语
  64. Language                       : Chinese
  65. Default                        : No
  66. Forced                         : No

  67. Text #1
  68. ID                             : 4
  69. Format                         : UTF-8
  70. Codec ID                       : S_TEXT/UTF8
  71. Codec ID/Info                  : UTF-8 Plain Text
  72. Duration                       : 1 h 34 min
  73. Bit rate                       : 68 b/s
  74. Count of elements              : 1746
  75. Stream size                    : 47.0 KiB (0%)
  76. Title                          : 简体
  77. Language                       : Chinese
  78. Default                        : Yes
  79. Forced                         : No

  80. Text #2
  81. ID                             : 5
  82. Format                         : UTF-8
  83. Codec ID                       : S_TEXT/UTF8
  84. Codec ID/Info                  : UTF-8 Plain Text
  85. Duration                       : 1 h 34 min
  86. Bit rate                       : 68 b/s
  87. Count of elements              : 1746
  88. Stream size                    : 47.0 KiB (0%)
  89. Title                          : 繁体
  90. Language                       : Chinese
  91. Default                        : No
  92. Forced                         : No

  93. Text #3
  94. ID                             : 6
  95. Format                         : UTF-8
  96. Codec ID                       : S_TEXT/UTF8
  97. Codec ID/Info                  : UTF-8 Plain Text
  98. Duration                       : 1 h 34 min
  99. Bit rate                       : 54 b/s
  100. Count of elements              : 1746
  101. Stream size                    : 37.8 KiB (0%)
  102. Title                          : 英文
  103. Language                       : English
  104. Default                        : No
  105. Forced                         : No

  106. Menu
  107. 00:00:00.000                   : en:1
  108. 00:11:49.125                   : en:2
  109. 00:22:09.078                   : en:3
  110. 00:36:42.242                   : en:4
  111. 00:47:07.658                   : en:5
  112. 01:00:30.377                   : en:6
  113. 01:10:25.721                   : en:7
  114. 01:21:58.830                   : en:8

复制代码


itunes台区自购,对比国内的版本优点是无删减,没有硬字幕,蓝光没有出来之前是目前最佳的选择

◎资源链接:
点击进入百度网盘下载(←购买前请先验证分享链接是否有效)


此处内容付费可见

此处内容需要向楼主支付盘币或购买VIP才能显示 已有 39 人购买 

支付 12 盘币 升级VIP


该资源其他网盘分享渠道→点此了解功能详情

使用115网盘下载(来自 至尊宝c 的分享,下载需要单独支付 12 盘币)

免责申明 - 论坛版权1、本站所有资源均来自会员分享或网络收集整理,仅供会员交流学习,禁用商业用途或盈利,下载后请在24小时之内删除;
2、本站(www.pan6.com)支持正版,本资源版权归版权方所有,观看或阅读请到相应机构购买正版资源;
3、本站资源均来源于网络,本站不参与录制、上传,如本帖侵犯到任何版权问题,请立即告知本站(admin#pan6.com(#=@)),本站将及时予与删除并致以最深的歉意;

点赞

参与人数 2热心值 +2

我很赞同! + 1

给力资源,感谢分享! + 1

查看点赞详情

楼主热贴推荐
禁止倒卖资源,资源有问题请私信
BT资源无法下载:戳这里,不会发帖、金币相关等新手问题:戳这里
回复

拉黑 使用道具 举报

为保留有用回复信息,此处有 39 个购买者的感谢留言已隐藏

主题
65
活跃值
1078
热心值
119
盘币
715
注册时间
2020-4-4
最后登录
2021-7-25
在线时间
275 小时
发表于 2021-7-15 16:29:10 | 显示全部楼层
谢谢分享
回复

拉黑 使用道具 举报

主题
0
活跃值
1686
热心值
0
盘币
471
注册时间
2018-3-9
最后登录
2021-7-25
在线时间
14 小时
发表于 2021-7-16 00:12:32 | 显示全部楼层
这个还是经典的 感谢楼主了先
回复

拉黑 使用道具 举报

主题
52
活跃值
3074
热心值
33
盘币
199
注册时间
2017-6-3
最后登录
2021-7-26
在线时间
438 小时
发表于 2021-7-16 22:17:35 | 显示全部楼层
有些贵,很伤粉丝的心
回复

拉黑 使用道具 举报

主题
2421
活跃值
18082
热心值
1845
盘币
296491
注册时间
2018-4-7
最后登录
2021-7-26
在线时间
1511 小时

长期在线阳光心情老会员勋章鼎力支持我是土豪优秀会员普通精华热心人士爱心满满灌水之王荣誉会员资源组成员动漫达人夜猫子

 楼主| 发表于 2021-7-16 22:31:49 | 显示全部楼层
1980xiake 发表于 2021-7-16 22:17
有些贵,很伤粉丝的心

你给我报销买片的钱不,不报销不要说这样的话,难道我就应该免费发出来吗,就十几个币会倾家荡产吗,又不是挂在精品区
禁止倒卖资源,资源有问题请私信
回复

拉黑 使用道具 举报

主题
2
活跃值
521
热心值
3
盘币
404
注册时间
2018-1-6
最后登录
2021-7-23
在线时间
39 小时
发表于 2021-7-18 22:42:01 | 显示全部楼层
多谢多谢啊!
回复

拉黑 使用道具 举报

主题
303
活跃值
1134
热心值
47
盘币
424
注册时间
2018-11-28
最后登录
2021-7-25
在线时间
564 小时

长期在线阳光心情老会员勋章鼎力支持灌水之王

发表于 2021-7-18 23:32:54 来自手机 | 显示全部楼层
良心价,流弊
回复

拉黑 使用道具 举报

严禁灌水、讽刺、挖苦、辱骂分享者行为。回复前请详读:点击进入 理性回复,以免永久封禁。
您需要登录后才可以回帖 登录 | 加入论坛

本版积分规则

免责声明:本站所有资源均收集自互联网,没有提供影片资源存储,也未参与录制、上传。若本站收录的资源涉及您的版权或知识产权或其他利益,请附上版权证明邮件告知,在收到邮件后24小时内删除。

Copyright © 2012 [盘乐网] 管理员邮箱:admin#pan6.com(#=@)

站长信箱|sitemap|手机版|小黑屋|百度统计|盘乐网 ( 粤ICP备18120611号 )

快速回复 返回顶部 返回列表