盘乐网

 找回密码
 加入论坛

QQ登录

只需一步,快速开始

提示:多个关键词中间加空格 例如:天龙八部 星河
查看: 766|回复: 60

[WEB-DL] [百度云+115+阿里云][中国内地][1991][过年][李保田/赵丽蓉/葛优][剧情][国语简繁软中字][1080P][MKV/1.72G][超清修复无水印][北京电影制片厂] 含百度网盘 含百度网盘

  [复制链接]

主题
2421
活跃值
18082
热心值
1845
盘币
296491
注册时间
2018-4-7
最后登录
2021-7-26
在线时间
1511 小时

长期在线阳光心情老会员勋章鼎力支持我是土豪优秀会员普通精华热心人士爱心满满灌水之王荣誉会员资源组成员动漫达人夜猫子

发表于 2021-7-16 16:12:58 | 显示全部楼层 |阅读模式
请尊重分享者,本资源仅限交流未经楼主同意严禁转载或盈利,违者封号处理!



◎译  名 The Spring Festival
◎片  名 过年
◎年  代 1991
◎产  地 中国内地
◎类  别 剧情 / 家庭
◎语  言 汉语普通话
◎上映日期 1991-02-12(中国内地)
◎IMDb评分  7.2/10 from 152 users
◎IMDb链接  https://www.imdb.com/title/tt0206313
◎豆瓣评分 8.7/10 from 27704 users
◎豆瓣链接 https://movie.douban.com/subject/1296218/
◎片  长 101分钟
◎导  演 黄健中 Jian-zhong Huang
◎编  剧 姜一 Yi Jiang
◎主  演 赵丽蓉 Lirong Zhao
       葛优 You Ge
       梁天 Tian Liang
       李保田 Baotian Li
       丁嘉丽 Jiali Ding
       六小龄童 Jinlai Zhang
       史兰芽 Lanya Shi
       申军谊 Junyi Shen
       胡亚捷 Yajie Hu
       谭小燕 Xiaoyan Tan
       马晓晴 Xiaoqing Ma
       王丽云 Liyun Wang


◎标  签 中国电影 | 家庭 | 大陆 | 剧情 | 中国 | 葛优 | 过年 | 1991

◎简  介  

  一年一度的农历春节来临,生活在东北农村的程家老两口(李保田 & 赵丽蓉 饰)满心欢喜地等待儿女回家过年。去年的团圆饭不欢而散,因此母亲更加盼望这次能过个愉快的团圆年。
  不久,子女们陆续回来:长子(六小龄童 饰)木讷老实,大媳妇(丁嘉丽 饰)泼辣刁蛮;干部大姐夫(葛优 饰)不走正道,在外拈花惹草,还强逼妻子堕胎;小儿子(梁天 饰)不务正业,贪图享乐,只知道伸手要钱;父亲最疼爱的二女儿当初忤逆父命嫁给架子工(申军谊 饰),如今自食其力干出事业的小两口也再次归来。
  看似喜庆祥和的兄弟妯娌们却各有各的小九九,不知今年的年夜饭该如何收场……
  赵丽蓉籍此片获1990年第4届东京国际电影节评委最佳女主角大奖。

◎获奖情况  

  第4届东京国际电影节(1991)
  主竞赛单元 最佳影片(提名) 黄健中
  主竞赛单元 评委会大奖 黄健中
  主竞赛单元 最佳女演员 赵丽蓉

  第12届中国电影金鸡奖(1992)
  最佳故事片(提名)
  最佳导演(提名) 黄健中
  最佳编剧(提名) 姜一
  最佳女主角(提名) 赵丽蓉
  最佳女配角 丁嘉丽
  最佳录音(提名)

  第15届大众电影百花奖(1992)
  最佳故事片
  最佳女演员 赵丽蓉
  最佳男配角 葛优

◎截    图
过年.mkv_20210716_144339.349.jpg 过年 (1).mkv_20210716_144922.685.jpg 过年.mkv_20210716_144638.479.jpg 过年.1995.WEB-DL.The Spring Festival.2Audio.@至尊宝.mkv_20210716_160251.434.jpg

过年.1995.WEB-DL.The Spring Festival.2Audio.@至尊宝.mkv.jpg

  1. Video
  2. ID                             : 1
  3. Format                         : AVC
  4. Format/Info                    : Advanced Video Codec
  5. Format profile                 : High@L4
  6. Format settings                : CABAC / 4 Ref Frames
  7. Format settings, CABAC         : Yes
  8. Format settings, Reference fra : 4 frames
  9. Codec ID                       : V_MPEG4/ISO/AVC
  10. Duration                       : 1 h 41 min
  11. Bit rate                       : 1 800 kb/s
  12. Width                          : 1 920 pixels
  13. Height                         : 1 080 pixels
  14. Display aspect ratio           : 16:9
  15. Frame rate mode                : Constant
  16. Frame rate                     : 30.000 FPS
  17. Color space                    : YUV
  18. Chroma subsampling             : 4:2:0
  19. Bit depth                      : 8 bits
  20. Scan type                      : Progressive
  21. Bits/(Pixel*Frame)             : 0.029
  22. Stream size                    : 1.27 GiB (74%)
  23. Title                          : @至尊宝
  24. Writing library                : x264 core 152
  25. Encoding settings              : cabac=1 / ref=2 / deblock=1:0:0 / analyse=0x3:0x113 / me=hex / subme=4 / psy=1 / psy_rd=1.00:0.00 / mixed_ref=0 / me_range=16 / chroma_me=1 / trellis=1 / 8x8dct=1 / cqm=0 / deadzone=21,11 / fast_pskip=1 / chroma_qp_offset=0 / threads=34 / lookahead_threads=8 / sliced_threads=0 / nr=0 / decimate=1 / interlaced=0 / bluray_compat=0 / constrained_intra=0 / bframes=3 / b_pyramid=2 / b_adapt=1 / b_bias=0 / direct=1 / weightb=1 / open_gop=0 / weightp=1 / keyint=250 / keyint_min=25 / scenecut=40 / intra_refresh=0 / rc_lookahead=20 / rc=abr / mbtree=1 / bitrate=1800 / ratetol=1.0 / qcomp=0.60 / qpmin=0 / qpmax=69 / qpstep=4 / ip_ratio=1.40 / aq=1:1.00
  26. Language                       : Chinese
  27. Default                        : Yes
  28. Forced                         : No

  29. Audio #1
  30. ID                             : 2
  31. Format                         : AC-3
  32. Format/Info                    : Audio Coding 3
  33. Commercial name                : Dolby Digital
  34. Codec ID                       : A_AC3
  35. Duration                       : 1 h 41 min
  36. Bit rate mode                  : Constant
  37. Bit rate                       : 320 kb/s
  38. Channel(s)                     : 2 channels
  39. Channel layout                 : L R
  40. Sampling rate                  : 48.0 kHz
  41. Frame rate                     : 31.250 FPS (1536 SPF)
  42. Compression mode               : Lossy
  43. Stream size                    : 232 MiB (13%)
  44. Title                          : 国语2.0
  45. Language                       : Chinese
  46. Service kind                   : Complete Main
  47. Default                        : Yes
  48. Forced                         : No

  49. Audio #2
  50. ID                             : 3
  51. Format                         : AC-3
  52. Format/Info                    : Audio Coding 3
  53. Commercial name                : Dolby Digital
  54. Codec ID                       : A_AC3
  55. Duration                       : 1 h 40 min
  56. Bit rate mode                  : Constant
  57. Bit rate                       : 320 kb/s
  58. Channel(s)                     : 6 channels
  59. Channel layout                 : L R C LFE Ls Rs
  60. Sampling rate                  : 48.0 kHz
  61. Frame rate                     : 31.250 FPS (1536 SPF)
  62. Compression mode               : Lossy
  63. Stream size                    : 229 MiB (13%)
  64. Title                          : 国语5.1
  65. Language                       : Chinese
  66. Service kind                   : Complete Main
  67. Default                        : No
  68. Forced                         : No

  69. Text #1
  70. ID                             : 4
  71. Format                         : UTF-8
  72. Codec ID                       : S_TEXT/UTF8
  73. Codec ID/Info                  : UTF-8 Plain Text
  74. Duration                       : 1 h 39 min
  75. Bit rate                       : 41 b/s
  76. Count of elements              : 1478
  77. Stream size                    : 29.9 KiB (0%)
  78. Title                          : 简体
  79. Language                       : Chinese
  80. Default                        : Yes
  81. Forced                         : No

  82. Text #2
  83. ID                             : 5
  84. Format                         : UTF-8
  85. Codec ID                       : S_TEXT/UTF8
  86. Codec ID/Info                  : UTF-8 Plain Text
  87. Duration                       : 1 h 39 min
  88. Bit rate                       : 41 b/s
  89. Count of elements              : 1478
  90. Stream size                    : 29.9 KiB (0%)
  91. Title                          : 繁体
  92. Language                       : Chinese
  93. Default                        : No
  94. Forced                         : No

复制代码


这个字幕想做很久了,今天抽了半天时间搞了字幕,不要再评论什么卖这么贵,我所付出的时间和价格是成正比的,由于整部片子听写不佳,在流媒体扒了个没有修复但是带字幕的版本,由本人原创提取硬字幕OCR校对调轴,填补修正N多的地方,过程非常的麻烦,不多说,说多就是泪,片头和片尾并且增加了腾格尔的罗锅桥歌词,另外再制作一条假5.1音轨封装,不喜勿喷!资源禁止一切倒卖,二次压制、二次提取字幕!
资源链接:
点击进入百度网盘下载(←购买前请先验证分享链接是否有效)


此处内容付费可见

此处内容需要向楼主支付盘币或购买VIP才能显示 已有 49 人购买 

支付 18 盘币 升级VIP


该资源其他网盘分享渠道→点此了解功能详情

使用115网盘下载(来自 至尊宝c 的分享,下载需要单独支付 18 盘币)

免责申明 - 论坛版权1、本站所有资源均来自会员分享或网络收集整理,仅供会员交流学习,禁用商业用途或盈利,下载后请在24小时之内删除;
2、本站(www.pan6.com)支持正版,本资源版权归版权方所有,观看或阅读请到相应机构购买正版资源;
3、本站资源均来源于网络,本站不参与录制、上传,如本帖侵犯到任何版权问题,请立即告知本站(admin#pan6.com(#=@)),本站将及时予与删除并致以最深的歉意;
楼主热贴推荐
禁止倒卖资源,资源有问题请私信
BT资源无法下载:戳这里,不会发帖、金币相关等新手问题:戳这里
回复

拉黑 使用道具 举报

为保留有用回复信息,此处有 49 个购买者的感谢留言已隐藏

主题
2421
活跃值
18082
热心值
1845
盘币
296491
注册时间
2018-4-7
最后登录
2021-7-26
在线时间
1511 小时

长期在线阳光心情老会员勋章鼎力支持我是土豪优秀会员普通精华热心人士爱心满满灌水之王荣誉会员资源组成员动漫达人夜猫子

 楼主| 发表于 2021-7-18 16:07:50 | 显示全部楼层
本帖最后由 至尊宝c 于 2021-7-20 16:59 编辑

不要脸的影狗堂又来偷资源了
禁止倒卖资源,资源有问题请私信
回复

拉黑 使用道具 举报

主题
0
活跃值
2029
热心值
-4
盘币
1826
注册时间
2018-4-28
最后登录
2021-7-26
在线时间
343 小时
发表于 2021-7-16 17:11:19 | 显示全部楼层
制作字幕非常辛苦,嫌贵的可以不买,感谢楼主制作、分享!
回复

拉黑 使用道具 举报

主题
8
活跃值
231
热心值
0
盘币
169
注册时间
2019-10-2
最后登录
2021-7-26
在线时间
585 小时
发表于 2021-7-16 17:29:12 来自手机 | 显示全部楼层
楼主的字幕卖得不贵,倒是有些人的字幕动辄卖到500盘币以上,那才叫贵,当然如何定价是他的权利。
回复

拉黑 使用道具 举报

主题
2421
活跃值
18082
热心值
1845
盘币
296491
注册时间
2018-4-7
最后登录
2021-7-26
在线时间
1511 小时

长期在线阳光心情老会员勋章鼎力支持我是土豪优秀会员普通精华热心人士爱心满满灌水之王荣誉会员资源组成员动漫达人夜猫子

 楼主| 发表于 2021-7-16 17:37:20 | 显示全部楼层
LTF 发表于 2021-7-16 17:29
楼主的字幕卖得不贵,倒是有些人的字幕动辄卖到500盘币以上,那才叫贵,当然如何定价是他的权利。 ...

是啊,我都没有挂精品区,就十几个币好像要他们倾家荡产了一样
禁止倒卖资源,资源有问题请私信
回复

拉黑 使用道具 举报

主题
0
活跃值
1133
热心值
0
盘币
251
注册时间
2018-5-13
最后登录
2021-7-21
在线时间
80 小时
发表于 2021-7-16 17:41:35 | 显示全部楼层
非常好看的电影
回复

拉黑 使用道具 举报

主题
0
活跃值
3693
热心值
0
盘币
1140
注册时间
2014-5-7
最后登录
2021-7-25
在线时间
300 小时
发表于 2021-7-16 18:18:02 | 显示全部楼层
制作辛苦了,我还是第一次看见这片子有字幕的
回复

拉黑 使用道具 举报

主题
0
活跃值
1686
热心值
0
盘币
471
注册时间
2018-3-9
最后登录
2021-7-25
在线时间
14 小时
发表于 2021-7-17 00:38:49 | 显示全部楼层
这个是好东西 感谢楼主分享了先
回复

拉黑 使用道具 举报

主题
3
活跃值
2848
热心值
7
盘币
735
注册时间
2017-7-16
最后登录
2021-7-25
在线时间
83 小时
发表于 2021-7-17 06:06:05 | 显示全部楼层
感谢楼主分享
回复

拉黑 使用道具 举报

主题
46
活跃值
1358
热心值
29
盘币
1633
注册时间
2018-11-11
最后登录
2021-7-25
在线时间
212 小时
发表于 2021-7-17 07:05:30 | 显示全部楼层
楼主,《一声叹息》能出个字幕版的吗?麻烦您啦
亡羊已补牢。
回复

拉黑 使用道具 举报

主题
51
活跃值
3837
热心值
252
盘币
24665
注册时间
2017-9-27
最后登录
2021-7-25
在线时间
128 小时

老会员勋章阳光心情爱心满满普通精华热心人士长期在线灌水之王资源组成员

发表于 2021-7-17 09:54:38 | 显示全部楼层
每一个webdl版读写了修复,问一下本片是哪里的修复?
回复

拉黑 使用道具 举报

主题
0
活跃值
229
热心值
0
盘币
37
注册时间
2021-1-9
最后登录
2021-7-25
在线时间
38 小时
发表于 2021-7-17 10:06:34 | 显示全部楼层
手上有个1.34G的版本,看截图和体积应该是楼主这个更清晰一点
回复

拉黑 使用道具 举报

主题
2421
活跃值
18082
热心值
1845
盘币
296491
注册时间
2018-4-7
最后登录
2021-7-26
在线时间
1511 小时

长期在线阳光心情老会员勋章鼎力支持我是土豪优秀会员普通精华热心人士爱心满满灌水之王荣誉会员资源组成员动漫达人夜猫子

 楼主| 发表于 2021-7-17 11:25:17 | 显示全部楼层
26778518872 发表于 2021-7-17 07:05
楼主,《一声叹息》能出个字幕版的吗?麻烦您啦

这个弄过,之前帖子里面更新过

点评

支持: 5.0
楼主太棒了,万分感谢!  发表于 2021-7-17 12:49
支持: 5
谢谢,我来找找  发表于 2021-7-17 12:45
禁止倒卖资源,资源有问题请私信
回复

拉黑 使用道具 举报

主题
2
活跃值
521
热心值
3
盘币
404
注册时间
2018-1-6
最后登录
2021-7-23
在线时间
39 小时
发表于 2021-7-18 22:59:45 | 显示全部楼层
文体两开花!
回复

拉黑 使用道具 举报

主题
6
活跃值
1066
热心值
3
盘币
145
注册时间
2020-2-2
最后登录
2021-7-25
在线时间
104 小时
发表于 7 天前 | 显示全部楼层
看过原来的没有字幕的版本,没字幕口音有不清楚,看的吃力,这个有字幕,点赞
回复

拉黑 使用道具 举报

严禁灌水、讽刺、挖苦、辱骂分享者行为。回复前请详读:点击进入 理性回复,以免永久封禁。
您需要登录后才可以回帖 登录 | 加入论坛

本版积分规则

免责声明:本站所有资源均收集自互联网,没有提供影片资源存储,也未参与录制、上传。若本站收录的资源涉及您的版权或知识产权或其他利益,请附上版权证明邮件告知,在收到邮件后24小时内删除。

Copyright © 2012 [盘乐网] 管理员邮箱:admin#pan6.com(#=@)

站长信箱|sitemap|手机版|小黑屋|百度统计|盘乐网 ( 粤ICP备18120611号 )

快速回复 返回顶部 返回列表