盘乐网

 找回密码
 加入论坛

QQ登录

只需一步,快速开始

提示:多个关键词中间加空格 例如:天龙八部 星河
查看: 229|回复: 24

[BD-1080P] [百度云+115][中国香港][2006][黑白道][张家辉/黄秋生/吴镇宇][犯罪][国粤语简繁软中字][1080P][MKV/7.39G][港版蓝光修复无水印][CHDBits] 含百度网盘 含百度网盘

[复制链接]

主题
2421
活跃值
18082
热心值
1845
盘币
296482
注册时间
2018-4-7
最后登录
2021-7-25
在线时间
1511 小时

长期在线阳光心情老会员勋章鼎力支持我是土豪优秀会员普通精华热心人士爱心满满灌水之王荣誉会员资源组成员动漫达人夜猫子

发表于 4 天前 | 显示全部楼层 |阅读模式
请尊重分享者,本资源仅限交流未经楼主同意严禁转载或盈利,违者封号处理!
p2555231691_gaitubao_455x585.jpg
◎译  名 On The Edge
◎片  名 黑白道
◎年  代 2006
◎产  地 中国香港
◎类  别 剧情 / 犯罪
◎语  言 汉语普通话/粤语
◎上映日期 2006-08-31
◎IMDb评分  6.5/10 from 435 users
◎IMDb链接  https://www.imdb.com/title/tt0845464/
◎豆瓣评分 6.8/10 from 10811 users
◎豆瓣链接 https://movie.douban.com/subject/1865108/
◎片  长 Hong Kong: 88 分钟
◎导  演 邱礼涛 Herman Yau
◎编  剧 邱礼涛 Herman Yau / 田彦二  / 黄爱生
◎主  演 张家辉 Nick Cheung
       黄秋生 Anthony Wong Chau-Sang
       吴镇宇 Francis Ng
       李彩桦 Rain Li
       曾国祥 Derek Tsang
       陈捷文 Chit-Man Chan
       潘源良 Yuen-Leung Poon
       黄定邦 Wong Ting Pong
       陈治良 Frankie Chin
       黄明升 Ming-Sing Wong

◎标  签 香港 | 黑帮 | 警匪 | 卧底 | 2006 | 犯罪 | 黑社会 | 剧情

◎简  介

  当了八年卧底探员的海生(张家辉饰)成功逮捕犯罪分子Dark哥(吴镇宇饰),心想到终于可以摆脱卧底生活,海生感到生活又恢复了光明。
  可是,事情却不是海生想的那样美好。复职的颁奖仪式草草了事,同事对他投来的不是关切与欣赏,而是不信任的目光。警员阿龙(黄秋生饰)只是默默地安慰他。
  卧底时期的女友与自己分手,陌生人开始跟踪自己,海生觉得自己警员的生活远比卧底更加痛苦。他回想起卧底时候Dark哥与他的往事,不由得动容,而此时,海生卧底时的朋友找到海生,原来想逃离卧底生涯,远非那么简单。


◎截    图
黑白道.2006.BDRip.On The Edge.HKG.2Audio.CHDBits.mkv_20210722_001912.180.jpg 黑白道.2006.BDRip.On The Edge.HKG.2Audio.CHDBits.mkv_20210722_001832.290.jpg 黑白道.2006.BDRip.On The Edge.HKG.2Audio.CHDBits.mkv_20210722_001745.231.jpg 黑白道.2006.BDRip.On The Edge.HKG.2Audio.CHDBits.mkv_20210722_001728.447.jpg

黑白道.2006.BDRip.On The Edge.HKG.2Audio.CHDBits.mkv.jpg

  1. Video
  2. ID                             : 1
  3. Format                         : AVC
  4. Format/Info                    : Advanced Video Codec
  5. Format profile                 : High@L4.1
  6. Format settings                : CABAC / 4 Ref Frames
  7. Format settings, CABAC         : Yes
  8. Format settings, Reference fra : 4 frames
  9. Codec ID                       : V_MPEG4/ISO/AVC
  10. Duration                       : 1 h 28 min
  11. Bit rate                       : 10.6 Mb/s
  12. Width                          : 1 920 pixels
  13. Height                         : 1 080 pixels
  14. Display aspect ratio           : 16:9
  15. Frame rate mode                : Constant
  16. Frame rate                     : 24.000 FPS
  17. Color space                    : YUV
  18. Chroma subsampling             : 4:2:0
  19. Bit depth                      : 8 bits
  20. Scan type                      : Progressive
  21. Bits/(Pixel*Frame)             : 0.214
  22. Stream size                    : 6.59 GiB (89%)
  23. Title                          : @至尊宝
  24. Writing library                : x264 core 116 r2037+593 ba36cdb
  25. Encoding settings              : cabac=1 / ref=4 / deblock=1:-3:-3 / analyse=0x3:0x113 / me=umh / subme=9 / psy=1 / fade_compensate=0.00 / psy_rd=1.05:0.10 / mixed_ref=1 / me_range=32 / chroma_me=1 / trellis=2 / 8x8dct=1 / cqm=1 / deadzone=21,11 / fast_pskip=0 / chroma_qp_offset=-2 / threads=12 / sliced_threads=0 / nr=0 / decimate=1 / interlaced=0 / bluray_compat=0 / constrained_intra=0 / fgo=0 / bframes=6 / b_pyramid=2 / b_adapt=2 / b_bias=0 / direct=3 / weightb=1 / open_gop=0 / weightp=2 / keyint=250 / keyint_min=24 / scenecut=40 / intra_refresh=0 / rc_lookahead=60 / rc=2pass / mbtree=1 / bitrate=10639 / ratetol=2.0 / qcomp=0.70 / qpmin=3 / qpmax=69 / qpstep=4 / cplxblur=20.0 / qblur=0.5 / vbv_maxrate=40000 / vbv_bufsize=30000 / nal_hrd=none / ip_ratio=1.40 / aq=1:1.00
  26. Language                       : Chinese
  27. Default                        : Yes
  28. Forced                         : Yes

  29. Audio #1
  30. ID                             : 2
  31. Format                         : AC-3
  32. Format/Info                    : Audio Coding 3
  33. Commercial name                : Dolby Digital
  34. Codec ID                       : A_AC3
  35. Duration                       : 1 h 28 min
  36. Bit rate mode                  : Constant
  37. Bit rate                       : 640 kb/s
  38. Channel(s)                     : 6 channels
  39. Channel layout                 : L R C LFE Ls Rs
  40. Sampling rate                  : 48.0 kHz
  41. Frame rate                     : 31.250 FPS (1536 SPF)
  42. Compression mode               : Lossy
  43. Stream size                    : 406 MiB (5%)
  44. Title                          : 国语
  45. Language                       : Chinese
  46. Service kind                   : Complete Main
  47. Default                        : Yes
  48. Forced                         : No

  49. Audio #2
  50. ID                             : 3
  51. Format                         : AC-3
  52. Format/Info                    : Audio Coding 3
  53. Commercial name                : Dolby Digital
  54. Codec ID                       : A_AC3
  55. Duration                       : 1 h 28 min
  56. Bit rate mode                  : Constant
  57. Bit rate                       : 640 kb/s
  58. Channel(s)                     : 6 channels
  59. Channel layout                 : L R C LFE Ls Rs
  60. Sampling rate                  : 48.0 kHz
  61. Frame rate                     : 31.250 FPS (1536 SPF)
  62. Compression mode               : Lossy
  63. Stream size                    : 406 MiB (5%)
  64. Title                          : 粤语
  65. Language                       : Chinese
  66. Service kind                   : Complete Main
  67. Default                        : No
  68. Forced                         : No

  69. Text #1
  70. ID                             : 4
  71. Format                         : UTF-8
  72. Codec ID                       : S_TEXT/UTF8
  73. Codec ID/Info                  : UTF-8 Plain Text
  74. Duration                       : 1 h 25 min
  75. Bit rate                       : 38 b/s
  76. Count of elements              : 1023
  77. Stream size                    : 23.9 KiB (0%)
  78. Title                          : 简体
  79. Language                       : Chinese
  80. Default                        : Yes
  81. Forced                         : No

  82. Text #2
  83. ID                             : 5
  84. Format                         : UTF-8
  85. Codec ID                       : S_TEXT/UTF8
  86. Codec ID/Info                  : UTF-8 Plain Text
  87. Duration                       : 1 h 25 min
  88. Bit rate                       : 38 b/s
  89. Count of elements              : 1023
  90. Stream size                    : 23.9 KiB (0%)
  91. Title                          : 繁体
  92. Language                       : Chinese
  93. Default                        : No
  94. Forced                         : No

复制代码



◎资源链接:
点击进入百度网盘下载(←购买前请先验证分享链接是否有效)


此处内容付费可见

此处内容需要向楼主支付盘币或购买VIP才能显示 已有 24 人购买 

支付 5 盘币 升级VIP


该资源其他网盘分享渠道→点此了解功能详情

使用115网盘下载(来自 至尊宝c 的分享,下载需要单独支付 5 盘币)

免责申明 - 论坛版权1、本站所有资源均来自会员分享或网络收集整理,仅供会员交流学习,禁用商业用途或盈利,下载后请在24小时之内删除;
2、本站(www.pan6.com)支持正版,本资源版权归版权方所有,观看或阅读请到相应机构购买正版资源;
3、本站资源均来源于网络,本站不参与录制、上传,如本帖侵犯到任何版权问题,请立即告知本站(admin#pan6.com(#=@)),本站将及时予与删除并致以最深的歉意;
楼主热贴推荐
禁止倒卖资源,资源有问题请私信
BT资源无法下载:戳这里,不会发帖、金币相关等新手问题:戳这里
回复

拉黑 使用道具 举报

为保留有用回复信息,此处有 24 个购买者的感谢留言已隐藏
严禁灌水、讽刺、挖苦、辱骂分享者行为。回复前请详读:点击进入 理性回复,以免永久封禁。
您需要登录后才可以回帖 登录 | 加入论坛

本版积分规则

免责声明:本站所有资源均收集自互联网,没有提供影片资源存储,也未参与录制、上传。若本站收录的资源涉及您的版权或知识产权或其他利益,请附上版权证明邮件告知,在收到邮件后24小时内删除。

Copyright © 2012 [盘乐网] 管理员邮箱:admin#pan6.com(#=@)

站长信箱|sitemap|手机版|小黑屋|百度统计|盘乐网 ( 粤ICP备18120611号 )

快速回复 返回顶部 返回列表