盘乐网

 找回密码
 加入论坛

QQ登录

只需一步,快速开始

提示:多个关键词中间加空格 例如:天龙八部 星河
查看: 471|回复: 49

[BD-1080P] [百度云+115+阿里云][中国香港][1992][力王][樊少皇/何家驹][惊悚][国粤英导语简繁软中字][1080P][MKV/5.43G][英版蓝光修复无水印][至尊宝] 含百度网盘 含百度网盘

  [复制链接]

主题
2421
活跃值
18082
热心值
1845
盘币
296491
注册时间
2018-4-7
最后登录
2021-7-26
在线时间
1511 小时

长期在线阳光心情老会员勋章鼎力支持我是土豪优秀会员普通精华热心人士爱心满满灌水之王荣誉会员资源组成员动漫达人夜猫子

发表于 4 天前 | 显示全部楼层 |阅读模式
请尊重分享者,本资源仅限交流未经楼主同意严禁转载或盈利,违者封号处理!
p2555231691_gaitubao_455x585_gaitubao_455x574.jpg
◎译  名 Story of Ricky/硬碰硬(台)
◎片  名 力王
◎年  代 1992
◎产  地 中国香港,日本
◎类  别 动作 / 惊悚 / 犯罪
◎语  言 汉语普通话/粤语
◎上映日期 1992-04-09(中国香港)
◎IMDb评分  7.1/10 from 12951 users
◎IMDb链接  https://www.imdb.com/title/tt0102293/
◎豆瓣评分 7.0/10 from 34398 users
◎豆瓣链接 https://movie.douban.com/subject/1308912/
◎片  长 91分钟
◎导  演 蓝乃才 Ngai Kai Lam
◎编  剧 蓝乃才 Ngai Kai Lam / 猿渡哲也 Saruwatari Tetsuya
◎主  演 樊少皇 Siu-Wong Fan
       叶蕴仪 Gloria Yip
       何家驹 Ka-Kui Ho
       大岛由加利 Yukari Ôshima
       丹波哲郎 Tetsurô Tanba
       陈治良 Frankie Chin
       曾近荣 Kan-Wing Tsang
       陈国邦 Kwok-Pong Chan
       郭追 Philip Kwok
       林雪 Suet Lam
       樊梅生 Mei Sheng Fan
       蔡坚成 Kin-Shing Choi
       黄贵雄 Wong Kwai-Hung
       黄智强 Ji Keung Wong

◎标  签 力王 | 暴力 | 樊少皇 | 血腥 | 香港 | 动作 | Cult | 香港电影

◎简  介

  贺力王(樊少皇 饰)自幼蛮力过人,后经家族之世交善鬼(丹波哲郎 饰)指点,习得精纯硬气功。力王女友莹莹意外撞破毒贩交易,毒贩将莹莹捉回使其坠楼身亡,力王击毙毒贩为女友报仇,因此被关入国分监狱。时值2001年,监狱被私人承包成为盈利工具,犯人遭受残暴对待苦不堪言。力王不能容忍国分监狱北仓杀手山猫欺凌弱小,出手将其重伤,触怒北仓天王鸣海,副监狱长单眼蛇挑斗二人对决,力王出手轰杀鸣海,自此卷入与国分监狱四仓中其他三大天王黄泉、泰山、白神的连番战斗。力王烧毁监狱中的罂粟地,使度假归来的监狱所长(何家驹 饰)大为光火,而同样习练硬气功的所长,将是力王最强大的敌人……
  本片根据同名日本漫画改编。


◎截    图
力王.1992.BDRip.Story of Ricky.GBR.4Audio.@至尊宝.mkv_20210722_001958.513.jpg 力王.1992.BDRip.Story of Ricky.GBR.4Audio.@至尊宝.mkv_20210722_002026.419.jpg 力王.1992.BDRip.Story of Ricky.GBR.4Audio.@至尊宝.mkv_20210722_002043.688.jpg 力王.1992.BDRip.Story of Ricky.GBR.4Audio.@至尊宝.mkv_20210722_002052.796.jpg

力王.1992.BDRip.Story of Ricky.GBR.4Audio.@至尊宝.mkv.jpg

  1. Video
  2. ID                             : 1
  3. Format                         : HEVC
  4. Format/Info                    : High Efficiency Video Coding
  5. Format profile                 : Main 10@L4@Main
  6. Codec ID                       : V_MPEGH/ISO/HEVC
  7. Duration                       : 1 h 32 min
  8. Bit rate                       : 6 506 kb/s
  9. Width                          : 1 920 pixels
  10. Height                         : 1 080 pixels
  11. Display aspect ratio           : 16:9
  12. Frame rate mode                : Constant
  13. Frame rate                     : 23.976 (24000/1001) FPS
  14. Color space                    : YUV
  15. Chroma subsampling             : 4:2:0
  16. Bit depth                      : 10 bits
  17. Bits/(Pixel*Frame)             : 0.131
  18. Stream size                    : 4.19 GiB (77%)
  19. Title                          : @至尊宝
  20. Writing library                : x265 3.4+12-geff904199:[Windows][GCC 5.4.0][64 bit] 10bit
  21. Encoding settings              : cpuid=1111039 / frame-threads=3 / numa-pools=8 / wpp / no-pmode / no-pme / no-psnr / no-ssim / log-level=2 / input-csp=1 / input-res=1920x1080 / interlace=0 / total-frames=0 / level-idc=0 / high-tier=1 / uhd-bd=0 / ref=1 / no-allow-non-conformance / no-repeat-headers / annexb / no-aud / no-hrd / info / hash=0 / no-temporal-layers / open-gop / min-keyint=24 / keyint=240 / gop-lookahead=0 / bframes=3 / b-adapt=0 / b-pyramid / bframe-bias=0 / rc-lookahead=5 / lookahead-slices=6 / scenecut=0 / hist-scenecut=0 / radl=0 / no-splice / no-intra-refresh / ctu=32 / min-cu-size=16 / no-rect / no-amp / max-tu-size=32 / tu-inter-depth=1 / tu-intra-depth=1 / limit-tu=0 / rdoq-level=0 / dynamic-rd=0.00 / no-ssim-rd / no-signhide / no-tskip / nr-intra=0 / nr-inter=0 / no-constrained-intra / strong-intra-smoothing / max-merge=2 / limit-refs=0 / no-limit-modes / me=0 / subme=0 / merange=57 / temporal-mvp / no-frame-dup / no-hme / no-weightp / no-weightb / no-analyze-src-pics / deblock=0:0 / no-sao / no-sao-non-deblock / rd=2 / selective-sao=0 / early-skip / rskip / fast-intra / no-tskip-fast / no-cu-lossless / no-b-intra / no-splitrd-skip / rdpenalty=0 / psy-rd=0.00 / psy-rdoq=0.00 / no-rd-refine / no-lossless / cbqpoffs=0 / crqpoffs=0 / rc=crf / crf=15.0 / qcomp=0.60 / qpstep=4 / stats-write=0 / stats-read=0 / ipratio=1.40 / pbratio=1.30 / aq-mode=2 / aq-strength=0.00 / cutree / zone-count=0 / no-strict-cbr / qg-size=32 / no-rc-grain / qpmax=69 / qpmin=0 / no-const-vbv / sar=1 / overscan=0 / videoformat=5 / range=0 / colorprim=2 / transfer=2 / colormatrix=2 / chromaloc=0 / display-window=0 / cll=0,0 / min-luma=0 / max-luma=1023 / log2-max-poc-lsb=8 / vui-timing-info / vui-hrd-info / slices=1 / no-opt-qp-pps / no-opt-ref-list-length-pps / no-multi-pass-opt-rps / scenecut-bias=0.05 / hist-threshold=0.03 / no-opt-cu-delta-qp / no-aq-motion / no-hdr10 / no-hdr10-opt / no-dhdr10-opt / no-idr-recovery-sei / analysis-reuse-level=0 / analysis-save-reuse-level=0 / analysis-load-reuse-level=0 / scale-factor=0 / refine-intra=0 / refine-inter=0 / refine-mv=1 / refine-ctu-distortion=0 / no-limit-sao / ctu-info=0 / no-lowpass-dct / refine-analysis-type=0 / copy-pic=1 / max-ausize-factor=1.0 / no-dynamic-refine / no-single-sei / no-hevc-aq / no-svt / no-field / qp-adaptation-range=1.00 / no-scenecut-aware-qpconformance-window-offsets / right=0 / bottom=0 / decoder-max-rate=0
  22. Default                        : Yes
  23. Forced                         : No
  24. Color range                    : Limited

  25. Audio #1
  26. ID                             : 2
  27. Format                         : AC-3
  28. Format/Info                    : Audio Coding 3
  29. Commercial name                : Dolby Digital
  30. Codec ID                       : A_AC3
  31. Duration                       : 1 h 32 min
  32. Bit rate mode                  : Constant
  33. Bit rate                       : 640 kb/s
  34. Channel(s)                     : 2 channels
  35. Channel layout                 : L R
  36. Sampling rate                  : 48.0 kHz
  37. Frame rate                     : 31.250 FPS (1536 SPF)
  38. Compression mode               : Lossy
  39. Stream size                    : 422 MiB (8%)
  40. Title                          : 国语
  41. Language                       : Chinese
  42. Service kind                   : Complete Main
  43. Default                        : Yes
  44. Forced                         : No

  45. Audio #2
  46. ID                             : 3
  47. Format                         : AC-3
  48. Format/Info                    : Audio Coding 3
  49. Commercial name                : Dolby Digital
  50. Codec ID                       : A_AC3
  51. Duration                       : 1 h 32 min
  52. Bit rate mode                  : Constant
  53. Bit rate                       : 640 kb/s
  54. Channel(s)                     : 2 channels
  55. Channel layout                 : L R
  56. Sampling rate                  : 48.0 kHz
  57. Frame rate                     : 31.250 FPS (1536 SPF)
  58. Compression mode               : Lossy
  59. Stream size                    : 422 MiB (8%)
  60. Title                          : 粤语
  61. Language                       : Chinese
  62. Service kind                   : Complete Main
  63. Default                        : No
  64. Forced                         : No

  65. Audio #3
  66. ID                             : 4
  67. ID in the original source medi : 4355 (0x1103)
  68. Format                         : AC-3
  69. Format/Info                    : Audio Coding 3
  70. Commercial name                : Dolby Digital
  71. Codec ID                       : A_AC3
  72. Duration                       : 1 h 32 min
  73. Bit rate mode                  : Constant
  74. Bit rate                       : 448 kb/s
  75. Channel(s)                     : 6 channels
  76. Channel layout                 : L R C LFE Ls Rs
  77. Sampling rate                  : 48.0 kHz
  78. Frame rate                     : 31.250 FPS (1536 SPF)
  79. Compression mode               : Lossy
  80. Stream size                    : 295 MiB (5%)
  81. Title                          : 英语
  82. Language                       : English
  83. Service kind                   : Complete Main
  84. Default                        : No
  85. Forced                         : No
  86. Original source medium         : Blu-ray

  87. Audio #4
  88. ID                             : 5
  89. ID in the original source medi : 4356 (0x1104)
  90. Format                         : AC-3
  91. Format/Info                    : Audio Coding 3
  92. Commercial name                : Dolby Digital
  93. Codec ID                       : A_AC3
  94. Duration                       : 1 h 32 min
  95. Bit rate mode                  : Constant
  96. Bit rate                       : 192 kb/s
  97. Channel(s)                     : 2 channels
  98. Channel layout                 : L R
  99. Sampling rate                  : 48.0 kHz
  100. Frame rate                     : 31.250 FPS (1536 SPF)
  101. Compression mode               : Lossy
  102. Stream size                    : 127 MiB (2%)
  103. Title                          : 导评
  104. Language                       : English
  105. Service kind                   : Complete Main
  106. Default                        : No
  107. Forced                         : No
  108. Original source medium         : Blu-ray

  109. Text #1
  110. ID                             : 6
  111. Format                         : UTF-8
  112. Codec ID                       : S_TEXT/UTF8
  113. Codec ID/Info                  : UTF-8 Plain Text
  114. Duration                       : 1 h 27 min
  115. Bit rate                       : 28 b/s
  116. Count of elements              : 702
  117. Stream size                    : 18.1 KiB (0%)
  118. Title                          : 国语简体
  119. Language                       : Chinese
  120. Default                        : Yes
  121. Forced                         : No

  122. Text #2
  123. ID                             : 7
  124. Format                         : UTF-8
  125. Codec ID                       : S_TEXT/UTF8
  126. Codec ID/Info                  : UTF-8 Plain Text
  127. Duration                       : 1 h 27 min
  128. Bit rate                       : 28 b/s
  129. Count of elements              : 702
  130. Stream size                    : 18.1 KiB (0%)
  131. Title                          : 国语繁体
  132. Language                       : Chinese
  133. Default                        : No
  134. Forced                         : No

  135. Text #3
  136. ID                             : 8
  137. Format                         : UTF-8
  138. Codec ID                       : S_TEXT/UTF8
  139. Codec ID/Info                  : UTF-8 Plain Text
  140. Duration                       : 1 h 27 min
  141. Bit rate                       : 28 b/s
  142. Count of elements              : 697
  143. Stream size                    : 18.3 KiB (0%)
  144. Title                          : 粤语简体
  145. Language                       : Chinese
  146. Default                        : No
  147. Forced                         : No

  148. Text #4
  149. ID                             : 9
  150. Format                         : UTF-8
  151. Codec ID                       : S_TEXT/UTF8
  152. Codec ID/Info                  : UTF-8 Plain Text
  153. Duration                       : 1 h 27 min
  154. Bit rate                       : 28 b/s
  155. Count of elements              : 697
  156. Stream size                    : 18.3 KiB (0%)
  157. Title                          : 粤语繁体
  158. Language                       : Chinese
  159. Default                        : No
  160. Forced                         : No

  161. Text #5
  162. ID                             : 10
  163. Format                         : UTF-8
  164. Codec ID                       : S_TEXT/UTF8
  165. Codec ID/Info                  : UTF-8 Plain Text
  166. Duration                       : 1 h 27 min
  167. Bit rate                       : 25 b/s
  168. Count of elements              : 698
  169. Stream size                    : 16.1 KiB (0%)
  170. Title                          : 英文
  171. Language                       : English
  172. Default                        : No
  173. Forced                         : No

  174. Menu
  175. 00:00:00.000                   : en:第 01 章
  176. 00:12:35.671                   : en:第 02 章
  177. 00:27:41.951                   : en:第 03 章
  178. 00:42:54.738                   : en:第 04 章
  179. 00:54:52.289                   : en:第 05 章
  180. 01:12:55.871                   : en:第 06 章
  181. 01:32:03.100                   : en:第 07 章

复制代码


英版蓝光HEVC 10bit 自压,国配简繁+粤配简繁字幕

◎资源链接:
点击进入百度网盘下载(←购买前请先验证分享链接是否有效)


此处内容付费可见

此处内容需要向楼主支付盘币或购买VIP才能显示 已有 41 人购买 

支付 5 盘币 升级VIP


该资源其他网盘分享渠道→点此了解功能详情

使用115网盘下载(来自 至尊宝c 的分享,下载需要单独支付 5 盘币)

免责申明 - 论坛版权1、本站所有资源均来自会员分享或网络收集整理,仅供会员交流学习,禁用商业用途或盈利,下载后请在24小时之内删除;
2、本站(www.pan6.com)支持正版,本资源版权归版权方所有,观看或阅读请到相应机构购买正版资源;
3、本站资源均来源于网络,本站不参与录制、上传,如本帖侵犯到任何版权问题,请立即告知本站(admin#pan6.com(#=@)),本站将及时予与删除并致以最深的歉意;

点赞

参与人数 3热心值 +3

资源给力! + 1

这部电影太经典了!给力资源,感谢分享!. + 1

资源给力! + 1

查看点赞详情

楼主热贴推荐
禁止倒卖资源,资源有问题请私信
BT资源无法下载:戳这里,不会发帖、金币相关等新手问题:戳这里
回复

拉黑 使用道具 举报

为保留有用回复信息,此处有 41 个购买者的感谢留言已隐藏

主题
303
活跃值
1134
热心值
47
盘币
424
注册时间
2018-11-28
最后登录
2021-7-25
在线时间
564 小时

长期在线阳光心情老会员勋章鼎力支持灌水之王

发表于 4 天前 来自手机 | 显示全部楼层
支持支持
回复

拉黑 使用道具 举报

主题
2421
活跃值
18082
热心值
1845
盘币
296491
注册时间
2018-4-7
最后登录
2021-7-26
在线时间
1511 小时

长期在线阳光心情老会员勋章鼎力支持我是土豪优秀会员普通精华热心人士爱心满满灌水之王荣誉会员资源组成员动漫达人夜猫子

 楼主| 发表于 4 天前 | 显示全部楼层

                 
禁止倒卖资源,资源有问题请私信
回复

拉黑 使用道具 举报

主题
3
活跃值
959
热心值
0
盘币
3667
注册时间
2020-5-21
最后登录
2021-7-25
在线时间
31 小时

老会员勋章

发表于 4 天前 | 显示全部楼层
这个好像是怒之铁拳里面shiva的原型。
回复

拉黑 使用道具 举报

主题
4
活跃值
631
热心值
0
盘币
18
注册时间
2017-9-6
最后登录
2021-7-25
在线时间
54 小时
发表于 4 天前 | 显示全部楼层
经典之作!
回复

拉黑 使用道具 举报

主题
1
活跃值
6312
热心值
0
盘币
57
注册时间
2017-1-9
最后登录
2021-7-25
在线时间
88 小时

老会员勋章长期在线灌水之王

发表于 4 天前 | 显示全部楼层
这个太好看了
回复

拉黑 使用道具 举报

主题
0
活跃值
3423
热心值
0
盘币
1127
注册时间
2018-4-6
最后登录
2021-7-26
在线时间
66 小时

老会员勋章

发表于 3 天前 | 显示全部楼层
谢谢分享
回复

拉黑 使用道具 举报

主题
0
活跃值
1686
热心值
0
盘币
471
注册时间
2018-3-9
最后登录
2021-7-25
在线时间
14 小时
发表于 3 天前 | 显示全部楼层
这个经典不解释啊 感谢了
回复

拉黑 使用道具 举报

主题
2
活跃值
5068
热心值
-3
盘币
609
注册时间
2017-11-11
最后登录
2021-7-26
在线时间
25 小时
发表于 3 天前 | 显示全部楼层
怎么又出了个阿里云盘啊?真麻烦。
回复

拉黑 使用道具 举报

严禁灌水、讽刺、挖苦、辱骂分享者行为。回复前请详读:点击进入 理性回复,以免永久封禁。
您需要登录后才可以回帖 登录 | 加入论坛

本版积分规则

免责声明:本站所有资源均收集自互联网,没有提供影片资源存储,也未参与录制、上传。若本站收录的资源涉及您的版权或知识产权或其他利益,请附上版权证明邮件告知,在收到邮件后24小时内删除。

Copyright © 2012 [盘乐网] 管理员邮箱:admin#pan6.com(#=@)

站长信箱|sitemap|手机版|小黑屋|百度统计|盘乐网 ( 粤ICP备18120611号 )

快速回复 返回顶部 返回列表