盘乐网

 找回密码
 加入论坛

QQ登录

只需一步,快速开始

提示:多个关键词中间加空格 例如:天龙八部 星河
查看: 255|回复: 24

[BD-1080P] [百度云+115][中国香港][1992][审死官][周星驰/梅艳芳/吴孟达][喜剧][国粤语简繁软中字][1080P][MKV/4.4G][港版蓝光修复无水印][FRDS] 含百度网盘 含百度网盘

[复制链接]

主题
2421
活跃值
18082
热心值
1843
盘币
296466
注册时间
2018-4-7
最后登录
2021-7-25
在线时间
1511 小时

长期在线阳光心情老会员勋章鼎力支持我是土豪优秀会员普通精华热心人士爱心满满灌水之王荣誉会员资源组成员动漫达人夜猫子

发表于 4 天前 | 显示全部楼层 |阅读模式
请尊重分享者,本资源仅限交流未经楼主同意严禁转载或盈利,违者封号处理!
p2528116781_gaitubao_455x610.jpg
◎译  名 审死官/Justice, My Foot!/威龙闯天关(台)
◎片  名 審死官
◎年  代 1992
◎产  地 中国香港
◎类  别 喜剧 / 古装
◎语  言 汉语普通话/粤语
◎上映日期 1992-07-02(中国香港)
◎IMDb评分  6.8/10 from 2502 users
◎IMDb链接  https://www.imdb.com/title/tt0105385/
◎豆瓣评分 7.8/10 from 175544 users
◎豆瓣链接 https://movie.douban.com/subject/1305355/
◎片  长 01:39:21
◎导  演 杜琪峰 Johnnie To
◎编  剧 邵丽琼 Sandy Shaw / 苑琼丹 King-Tan Yuen
◎主  演 周星驰 Stephen Chow
       梅艳芳 Anita Mui
       吴家丽 Carrie Ng
       吴孟达 Man Tat Ng
       秦沛 Paul Chun
       梁家仁 Ka-Yan Leung
       苑琼丹 King-Tan Yuen
       黄一飞 Yut Fei Wong
       朱咪咪 Mimi Chu
       侯焕玲 Woon Ling Hau
       胡立成 Licheng Hu
       张志平 Chi Ping Chang
       梁心 Hsin Liang
       邓泰和 Tai Wo Tang
       林富伟 Fu-wai Lam
       高雄 Eddy Ko
       曾近荣 Kan-Wing Tsang
       李成昌 Shing-Cheung Lee
       王天林 Tian-lin Wang
       郑家生 Ka Sang Cheung
       艾威 Wei Ai
       曹荣 Wing Cho
       车保罗 Paul Che
       戚其义 Jonathan Chik
       郑君绵 Kwan-Min Cheng
       秦煌 Wong Chun

◎标  签 周星驰 | 喜剧 | 香港 | 香港电影 | 梅艳芳 | 杜琪峰 | 搞笑 | 电影

◎简  介

  宋世杰(周星驰 饰)是一个清朝时期的著名大状,他出色的口才及能力让他敢于批评衙门的大官,也为很多人伸冤。就算他不满当时官场的腐败黑暗,但他还是收了不少贿赂,部分还是昧心钱,都报应在了自己的儿子上,十多个儿子都养不大。妻子(梅艳芳 饰)为了腹中的孩子,断然要求他就此封笔,不可再做大状。虽然宋世杰极其不愿意,还是答应了妻子的要求。妻子遇到了满肚冤情的寡妇(吴嘉丽 饰),处于对女人的同情,她要求丈夫宋世杰为这名寡妇打官司,因此宋世杰又被迫重出江湖。在为寡妇伸冤的过程中,他再次看到了官场的黑暗,还差点抄家、送命……

◎获奖情况

  第29届台北金马影展  (1992)
  金马奖最佳剧情片(提名)
  金马奖最佳男主角(提名) 周星驰
  金马奖最佳改编剧本(提名) 邵丽琼
  金马奖最佳原创配乐(提名) 胡伟立
  金马奖最佳剪辑(提名) 朱晨杰

  第12届香港电影金像奖  (1993)
  最佳编剧(提名) 邵丽琼
  最佳男主角(提名) 周星驰
  最佳女主角(提名) 梅艳芳
  最佳服装造型设计(提名) 余家安


◎截    图

审死官.1992.BDRip.Justice, My Foot!.HKG.2Audio.FRDS.mkv_20210722_002129.987.jpg 审死官.1992.BDRip.Justice, My Foot!.HKG.2Audio.FRDS.mkv_20210722_002154.883.jpg 审死官.1992.BDRip.Justice, My Foot!.HKG.2Audio.FRDS.mkv_20210722_002214.907.jpg 审死官.1992.BDRip.Justice, My Foot!.HKG.2Audio.FRDS.mkv_20210722_002227.526.jpg

审死官.1992.BDRip.Justice, My Foot!.HKG.2Audio.FRDS.mkv.jpg



  1. Video
  2. ID                             : 1
  3. Format                         : HEVC
  4. Format/Info                    : High Efficiency Video Coding
  5. Format profile                 : Main 10@L4@Main
  6. Codec ID                       : V_MPEGH/ISO/HEVC
  7. Duration                       : 1 h 39 min
  8. Bit rate                       : 5 058 kb/s
  9. Width                          : 1 920 pixels
  10. Height                         : 1 034 pixels
  11. Display aspect ratio           : 1.85:1
  12. Frame rate mode                : Constant
  13. Frame rate                     : 24.000 FPS
  14. Color space                    : YUV
  15. Chroma subsampling             : 4:2:0
  16. Bit depth                      : 10 bits
  17. Bits/(Pixel*Frame)             : 0.106
  18. Stream size                    : 3.51 GiB (80%)
  19. Title                          : @至尊宝
  20. Writing library                : x265 2.4+27-e9e574bbed93:[Windows][GCC 6.3.0][64 bit] 10bit
  21. Encoding settings              : cpuid=1173503 / frame-threads=6 / numa-pools=36 / wpp / no-pmode / no-pme / no-psnr / no-ssim / log-level=2 / input-csp=1 / input-res=1920x1034 / interlace=0 / total-frames=143073 / level-idc=0 / high-tier=1 / uhd-bd=0 / ref=5 / no-allow-non-conformance / no-repeat-headers / annexb / no-aud / no-hrd / info / hash=0 / no-temporal-layers / no-open-gop / min-keyint=1 / keyint=360 / bframes=8 / b-adapt=2 / b-pyramid / bframe-bias=0 / rc-lookahead=60 / lookahead-slices=4 / scenecut=40 / no-intra-refresh / ctu=32 / min-cu-size=8 / no-rect / no-amp / max-tu-size=16 / tu-inter-depth=2 / tu-intra-depth=2 / limit-tu=4 / rdoq-level=2 / dynamic-rd=0.00 / ssim-rd / signhide / no-tskip / nr-intra=0 / nr-inter=0 / no-constrained-intra / no-strong-intra-smoothing / max-merge=3 / limit-refs=2 / limit-modes / me=3 / subme=5 / merange=25 / temporal-mvp / weightp / weightb / no-analyze-src-pics / deblock=-1:-1 / no-sao / no-sao-non-deblock / rd=4 / no-early-skip / rskip / no-fast-intra / no-tskip-fast / no-cu-lossless / b-intra / rdpenalty=1 / psy-rd=0.00 / psy-rdoq=5.00 / no-rd-refine / analysis-mode=0 / no-lossless / cbqpoffs=-2 / crqpoffs=-2 / rc=crf / crf=20.0 / qcomp=0.65 / qpstep=4 / stats-write=0 / stats-read=0 / ipratio=1.40 / pbratio=1.30 / aq-mode=2 / aq-strength=0.80 / cutree / zone-count=0 / no-strict-cbr / qg-size=16 / no-rc-grain / qpmax=69 / qpmin=0 / sar=0 / overscan=0 / videoformat=5 / range=0 / colorprim=1 / transfer=2 / colormatrix=2 / chromaloc=0 / display-window=0 / max-cll=0,0 / min-luma=0 / max-luma=1023 / log2-max-poc-lsb=8 / vui-timing-info / vui-hrd-info / slices=1 / opt-qp-pps / opt-ref-list-length-pps / no-multi-pass-opt-rps / scenecut-bias=0.05 / no-opt-cu-delta-qp / no-aq-motion / no-hdr / no-hdr-opt / no-dhdr10-opt / refine-level=5 / no-limit-sao / ctu-info=0
  22. Default                        : Yes
  23. Forced                         : No
  24. Color range                    : Limited
  25. Color primaries                : BT.709

  26. Audio #1
  27. ID                             : 2
  28. Format                         : AC-3
  29. Format/Info                    : Audio Coding 3
  30. Commercial name                : Dolby Digital
  31. Codec ID                       : A_AC3
  32. Duration                       : 1 h 39 min
  33. Bit rate mode                  : Constant
  34. Bit rate                       : 640 kb/s
  35. Channel(s)                     : 2 channels
  36. Channel layout                 : L R
  37. Sampling rate                  : 48.0 kHz
  38. Frame rate                     : 31.250 FPS (1536 SPF)
  39. Compression mode               : Lossy
  40. Stream size                    : 455 MiB (10%)
  41. Title                          : 国语
  42. Language                       : Chinese
  43. Service kind                   : Complete Main
  44. Default                        : Yes
  45. Forced                         : No

  46. Audio #2
  47. ID                             : 3
  48. Format                         : AC-3
  49. Format/Info                    : Audio Coding 3
  50. Commercial name                : Dolby Digital
  51. Codec ID                       : A_AC3
  52. Duration                       : 1 h 39 min
  53. Bit rate mode                  : Constant
  54. Bit rate                       : 640 kb/s
  55. Channel(s)                     : 2 channels
  56. Channel layout                 : L R
  57. Sampling rate                  : 48.0 kHz
  58. Frame rate                     : 31.250 FPS (1536 SPF)
  59. Compression mode               : Lossy
  60. Stream size                    : 455 MiB (10%)
  61. Title                          : 粤语
  62. Language                       : Chinese
  63. Service kind                   : Complete Main
  64. Default                        : No
  65. Forced                         : No

  66. Text #1
  67. ID                             : 4
  68. Format                         : UTF-8
  69. Codec ID                       : S_TEXT/UTF8
  70. Codec ID/Info                  : UTF-8 Plain Text
  71. Duration                       : 1 h 36 min
  72. Bit rate                       : 67 b/s
  73. Count of elements              : 2211
  74. Stream size                    : 47.5 KiB (0%)
  75. Title                          : 简体
  76. Language                       : Chinese
  77. Default                        : Yes
  78. Forced                         : No

  79. Text #2
  80. ID                             : 5
  81. Format                         : UTF-8
  82. Codec ID                       : S_TEXT/UTF8
  83. Codec ID/Info                  : UTF-8 Plain Text
  84. Duration                       : 1 h 36 min
  85. Bit rate                       : 67 b/s
  86. Count of elements              : 2211
  87. Stream size                    : 47.5 KiB (0%)
  88. Title                          : 繁体
  89. Language                       : Chinese
  90. Default                        : No
  91. Forced                         : No

  92. Menu
  93. 00:00:00.000                   : en:Chapter 01
  94. 00:09:36.166                   : en:Chapter 02
  95. 00:17:01.125                   : en:Chapter 03
  96. 00:24:27.791                   : en:Chapter 04
  97. 00:36:49.041                   : en:Chapter 05
  98. 00:46:42.041                   : en:Chapter 06
  99. 00:53:49.125                   : en:Chapter 07
  100. 01:00:44.041                   : en:Chapter 08
  101. 01:11:30.583                   : en:Chapter 09
  102. 01:17:10.125                   : en:Chapter 10
  103. 01:21:31.833                   : en:Chapter 11
  104. 01:37:28.875                   : en:Chapter 12

复制代码


洗掉之前发的版本,更新HEVC 10Bit版本,高画质省空间,只有国配字幕

◎资源链接:
点击进入百度网盘下载(←购买前请先验证分享链接是否有效)


此处内容付费可见

此处内容需要向楼主支付盘币或购买VIP才能显示 已有 18 人购买 

支付 5 盘币 升级VIP


该资源其他网盘分享渠道→点此了解功能详情

使用115网盘下载(来自 至尊宝c 的分享,下载需要单独支付 5 盘币)

免责申明 - 论坛版权1、本站所有资源均来自会员分享或网络收集整理,仅供会员交流学习,禁用商业用途或盈利,下载后请在24小时之内删除;
2、本站(www.pan6.com)支持正版,本资源版权归版权方所有,观看或阅读请到相应机构购买正版资源;
3、本站资源均来源于网络,本站不参与录制、上传,如本帖侵犯到任何版权问题,请立即告知本站(admin#pan6.com(#=@)),本站将及时予与删除并致以最深的歉意;
楼主热贴推荐
禁止倒卖资源,资源有问题请私信
BT资源无法下载:戳这里,不会发帖、金币相关等新手问题:戳这里
回复

拉黑 使用道具 举报

为保留有用回复信息,此处有 18 个购买者的感谢留言已隐藏

主题
14
活跃值
3645
热心值
1
盘币
1424
注册时间
2018-7-28
最后登录
2021-7-25
在线时间
412 小时
发表于 4 天前 | 显示全部楼层
那个时期的星爷很不错的
回复

拉黑 使用道具 举报

主题
1
活跃值
1598
热心值
0
盘币
721
注册时间
2015-9-17
最后登录
2021-7-25
在线时间
48 小时
发表于 4 天前 | 显示全部楼层
这版本很不错
收下了谢谢老大!
回复

拉黑 使用道具 举报

主题
0
活跃值
2029
热心值
-4
盘币
1826
注册时间
2018-4-28
最后登录
2021-7-26
在线时间
343 小时
发表于 4 天前 | 显示全部楼层
哦买噶!我昨天刚购买了上一个版本啊。
回复

拉黑 使用道具 举报

主题
2421
活跃值
18082
热心值
1843
盘币
296466
注册时间
2018-4-7
最后登录
2021-7-25
在线时间
1511 小时

长期在线阳光心情老会员勋章鼎力支持我是土豪优秀会员普通精华热心人士爱心满满灌水之王荣誉会员资源组成员动漫达人夜猫子

 楼主| 发表于 4 天前 | 显示全部楼层
归帆去棹 发表于 2021-7-22 11:09
哦买噶!我昨天刚购买了上一个版本啊。

我直接给你退币处理了
禁止倒卖资源,资源有问题请私信
回复

拉黑 使用道具 举报

主题
0
活跃值
2029
热心值
-4
盘币
1826
注册时间
2018-4-28
最后登录
2021-7-26
在线时间
343 小时
发表于 4 天前 | 显示全部楼层
至尊宝c 发表于 2021-7-22 11:11
我直接给你退币处理了

    老师您分享的资源质量很好,一直很喜欢,再花5个盘币也值得,我只是说一下,没想到您这么认真和贴心,非常感谢!
回复

拉黑 使用道具 举报

主题
0
活跃值
2965
热心值
0
盘币
617
注册时间
2018-9-13
最后登录
2021-7-25
在线时间
274 小时
发表于 4 天前 | 显示全部楼层
很棒的东东啊,值得一看!
回复

拉黑 使用道具 举报

主题
0
活跃值
1686
热心值
0
盘币
471
注册时间
2018-3-9
最后登录
2021-7-25
在线时间
14 小时
发表于 3 天前 | 显示全部楼层
这个经典不解释啊 感谢了
回复

拉黑 使用道具 举报

严禁灌水、讽刺、挖苦、辱骂分享者行为。回复前请详读:点击进入 理性回复,以免永久封禁。
您需要登录后才可以回帖 登录 | 加入论坛

本版积分规则

免责声明:本站所有资源均收集自互联网,没有提供影片资源存储,也未参与录制、上传。若本站收录的资源涉及您的版权或知识产权或其他利益,请附上版权证明邮件告知,在收到邮件后24小时内删除。

Copyright © 2012 [盘乐网] 管理员邮箱:admin#pan6.com(#=@)

站长信箱|sitemap|手机版|小黑屋|百度统计|盘乐网 ( 粤ICP备18120611号 )

快速回复 返回顶部 返回列表