盘乐网

 找回密码
 加入论坛

QQ登录

只需一步,快速开始

提示:多个关键词中间加空格 例如:天龙八部 星河
查看: 282|回复: 38

[WEB-DL] [百度云+115+阿里云][中国香港][1998][阴阳路4:与鬼同行][古天乐/孙佳君][恐怖][国粤语简繁英软中字][1080P][MKV/3.67G][超清修复无水印][Dave] 含百度网盘 含百度网盘

[复制链接]

主题
2421
活跃值
18082
热心值
1845
盘币
296491
注册时间
2018-4-7
最后登录
2021-7-26
在线时间
1511 小时

长期在线阳光心情老会员勋章鼎力支持我是土豪优秀会员普通精华热心人士爱心满满灌水之王荣誉会员资源组成员动漫达人夜猫子

发表于 4 天前 | 显示全部楼层 |阅读模式
请尊重分享者,本资源仅限交流未经楼主同意严禁转载或盈利,违者封号处理!
p2660415078_gaitubao_455x637.jpg
◎译  名 阴阳路4:与鬼同行
◎片  名 陰陽路4:與鬼同行
◎年  代 1998
◎产  地 中国香港
◎类  别 恐怖
◎语  言 汉语普通话/粤语
◎上映日期 1998-08-25(中国香港)
◎IMDb评分  5.3/10 from 77 users
◎IMDb链接  https://www.imdb.com/title/tt0289586/?ref_=nv_sr_srsg_0
◎豆瓣评分 5.8/10 from 4181 users
◎豆瓣链接 https://movie.douban.com/subject/1296221/
◎片  长 98分钟
◎导  演 邱礼涛 Herman Yau
◎编  剧 曾国赐 / 刘孝伟
◎主  演 古天乐 / 孙佳君 / 雷宇扬 / 张达明 / 陈妙瑛 / 黎耀祥 / 关宝慧 / 洪天明 / 汤宝如 / 黄百鸣


◎标  签 恐怖 | 香港 | 香港电影 | 古天乐 | 阴阳路 | 惊悚 | 1998 | 邱礼涛

◎简  介  

  在香港前往菲律宾的客机上,一对恩爱度蜜月的新人(古天乐与孙佳君饰)、三个好友(雷宇扬、张达明、吴志雄饰)与一对神经质的夫妻(黄百鸣等饰)、一个快递员共赴菲律宾旅游,却遇到了连串怪事。快递员过关时被扣下,发现自己运送的是一坛骨灰。神经质夫妻一入酒店就被吓了出来。恩爱夫妻遇到一位女巫,寓言丈夫将会不忠,并生有一子。三个好友偶遇一当地美女,前往镇上舞会,却是不幸入魔窟......

◎截    图

阴阳路4:与鬼同行.1998.WEB-DL.Troublesome Night 4.2Audio.Dave.mkv_20210722_00265.jpg 阴阳路4:与鬼同行.1998.WEB-DL.Troublesome Night 4.2Audio.Dave.mkv_20210722_00273.jpg 阴阳路4:与鬼同行.1998.WEB-DL.Troublesome Night 4.2Audio.Dave.mkv_20210722_00260.jpg 阴阳路4:与鬼同行.1998.WEB-DL.Troublesome Night 4.2Audio.Dave.mkv_20210722_00245.jpg

阴阳路4:与鬼同行.1998.WEB-DL.Troublesome Night 4.2Audio.Dave.mkv.jpg

  1. Video
  2. ID                             : 1
  3. Format                         : HEVC
  4. Format/Info                    : High Efficiency Video Coding
  5. Format profile                 : Main@L4@High
  6. Codec ID                       : V_MPEGH/ISO/HEVC
  7. Duration                       : 1 h 35 min
  8. Bit rate                       : 4 885 kb/s
  9. Width                          : 1 920 pixels
  10. Height                         : 1 080 pixels
  11. Display aspect ratio           : 16:9
  12. Frame rate mode                : Constant
  13. Frame rate                     : 24.000 FPS
  14. Color space                    : YUV
  15. Chroma subsampling             : 4:2:0
  16. Bit depth                      : 8 bits
  17. Bits/(Pixel*Frame)             : 0.098
  18. Stream size                    : 3.24 GiB (88%)
  19. Title                          : @至尊宝
  20. Default                        : Yes
  21. Forced                         : No

  22. Audio #1
  23. ID                             : 2
  24. Format                         : AAC LC
  25. Format/Info                    : Advanced Audio Codec Low Complexity
  26. Codec ID                       : A_AAC-2
  27. Duration                       : 1 h 35 min
  28. Bit rate                       : 320 kb/s
  29. Channel(s)                     : 2 channels
  30. Channel layout                 : L R
  31. Sampling rate                  : 48.0 kHz
  32. Frame rate                     : 46.875 FPS (1024 SPF)
  33. Compression mode               : Lossy
  34. Stream size                    : 218 MiB (6%)
  35. Title                          : 国语
  36. Language                       : Chinese
  37. Default                        : Yes
  38. Forced                         : No

  39. Audio #2
  40. ID                             : 3
  41. Format                         : AAC LC
  42. Format/Info                    : Advanced Audio Codec Low Complexity
  43. Codec ID                       : A_AAC-2
  44. Duration                       : 1 h 35 min
  45. Bit rate                       : 320 kb/s
  46. Channel(s)                     : 2 channels
  47. Channel layout                 : L R
  48. Sampling rate                  : 48.0 kHz
  49. Frame rate                     : 46.875 FPS (1024 SPF)
  50. Compression mode               : Lossy
  51. Stream size                    : 218 MiB (6%)
  52. Title                          : 粤语
  53. Language                       : Chinese
  54. Default                        : No
  55. Forced                         : No

  56. Text #1
  57. ID                             : 4
  58. Format                         : UTF-8
  59. Codec ID                       : S_TEXT/UTF8
  60. Codec ID/Info                  : UTF-8 Plain Text
  61. Duration                       : 1 h 32 min
  62. Bit rate                       : 43 b/s
  63. Count of elements              : 1273
  64. Stream size                    : 29.5 KiB (0%)
  65. Title                          : 简体
  66. Language                       : Chinese
  67. Default                        : Yes
  68. Forced                         : No

  69. Text #2
  70. ID                             : 5
  71. Format                         : UTF-8
  72. Codec ID                       : S_TEXT/UTF8
  73. Codec ID/Info                  : UTF-8 Plain Text
  74. Duration                       : 1 h 32 min
  75. Bit rate                       : 43 b/s
  76. Count of elements              : 1273
  77. Stream size                    : 29.5 KiB (0%)
  78. Title                          : 繁体
  79. Language                       : Chinese
  80. Default                        : No
  81. Forced                         : No

  82. Text #3
  83. ID                             : 6
  84. Format                         : UTF-8
  85. Codec ID                       : S_TEXT/UTF8
  86. Codec ID/Info                  : UTF-8 Plain Text
  87. Duration                       : 1 h 32 min
  88. Bit rate                       : 47 b/s
  89. Count of elements              : 1262
  90. Stream size                    : 32.5 KiB (0%)
  91. Title                          : 英语
  92. Language                       : English
  93. Default                        : No
  94. Forced                         : No

  95. Text #4
  96. ID                             : 7
  97. Format                         : UTF-8
  98. Codec ID                       : S_TEXT/UTF8
  99. Codec ID/Info                  : UTF-8 Plain Text
  100. Duration                       : 1 h 32 min
  101. Bit rate                       : 113 b/s
  102. Count of elements              : 1262
  103. Stream size                    : 77.0 KiB (0%)
  104. Title                          : 泰语
  105. Language                       : Thai
  106. Default                        : No
  107. Forced                         : No

  108. Text #5
  109. ID                             : 8
  110. Format                         : UTF-8
  111. Codec ID                       : S_TEXT/UTF8
  112. Codec ID/Info                  : UTF-8 Plain Text
  113. Duration                       : 1 h 32 min
  114. Bit rate                       : 48 b/s
  115. Count of elements              : 1262
  116. Stream size                    : 33.3 KiB (0%)
  117. Title                          : 马来语
  118. Language                       : Malay
  119. Default                        : No
  120. Forced                         : No

  121. Text #6
  122. ID                             : 9
  123. Format                         : UTF-8
  124. Codec ID                       : S_TEXT/UTF8
  125. Codec ID/Info                  : UTF-8 Plain Text
  126. Duration                       : 1 h 32 min
  127. Bit rate                       : 63 b/s
  128. Count of elements              : 1262
  129. Stream size                    : 43.4 KiB (0%)
  130. Title                          : 越南语
  131. Language                       : Vietnamese
  132. Default                        : No
  133. Forced                         : No

  134. Text #7
  135. ID                             : 10
  136. Format                         : UTF-8
  137. Codec ID                       : S_TEXT/UTF8
  138. Codec ID/Info                  : UTF-8 Plain Text
  139. Duration                       : 1 h 32 min
  140. Bit rate                       : 47 b/s
  141. Count of elements              : 1262
  142. Stream size                    : 32.1 KiB (0%)
  143. Title                          : 印尼语
  144. Language                       : Indonesian
  145. Default                        : No
  146. Forced                         : No

  147. Text #8
  148. ID                             : 11
  149. Format                         : UTF-8
  150. Codec ID                       : S_TEXT/UTF8
  151. Codec ID/Info                  : UTF-8 Plain Text
  152. Duration                       : 1 h 32 min
  153. Bit rate                       : 51 b/s
  154. Count of elements              : 1262
  155. Stream size                    : 34.8 KiB (0%)
  156. Title                          : 西班牙语
  157. Language                       : Spanish
  158. Default                        : No
  159. Forced                         : No

  160. Text #9
  161. ID                             : 12
  162. Format                         : UTF-8
  163. Codec ID                       : S_TEXT/UTF8
  164. Codec ID/Info                  : UTF-8 Plain Text
  165. Duration                       : 1 h 32 min
  166. Bit rate                       : 52 b/s
  167. Count of elements              : 1262
  168. Stream size                    : 35.4 KiB (0%)
  169. Title                          : 葡萄牙语
  170. Language                       : Portuguese
  171. Default                        : No
  172. Forced                         : No

  173. Text #10
  174. ID                             : 13
  175. Format                         : UTF-8
  176. Codec ID                       : S_TEXT/UTF8
  177. Codec ID/Info                  : UTF-8 Plain Text
  178. Duration                       : 1 h 32 min
  179. Bit rate                       : 59 b/s
  180. Count of elements              : 1262
  181. Stream size                    : 40.8 KiB (0%)
  182. Title                          : 阿拉伯语
  183. Language                       : Arabic
  184. Default                        : No
  185. Forced                         : No

复制代码



◎资源链接:
点击进入百度网盘下载(←购买前请先验证分享链接是否有效)


此处内容付费可见

此处内容需要向楼主支付盘币或购买VIP才能显示 已有 29 人购买 

支付 5 盘币 升级VIP


该资源其他网盘分享渠道→点此了解功能详情

使用115网盘下载(来自 至尊宝c 的分享,下载需要单独支付 5 盘币)

免责申明 - 论坛版权1、本站所有资源均来自会员分享或网络收集整理,仅供会员交流学习,禁用商业用途或盈利,下载后请在24小时之内删除;
2、本站(www.pan6.com)支持正版,本资源版权归版权方所有,观看或阅读请到相应机构购买正版资源;
3、本站资源均来源于网络,本站不参与录制、上传,如本帖侵犯到任何版权问题,请立即告知本站(admin#pan6.com(#=@)),本站将及时予与删除并致以最深的歉意;

点赞

参与人数 1热心值 +1

资源给力! + 1

查看点赞详情

楼主热贴推荐
禁止倒卖资源,资源有问题请私信
BT资源无法下载:戳这里,不会发帖、金币相关等新手问题:戳这里
回复

拉黑 使用道具 举报

为保留有用回复信息,此处有 29 个购买者的感谢留言已隐藏

主题
0
活跃值
0
热心值
0
盘币
184
注册时间
2020-4-2
最后登录
2021-7-26
在线时间
321 小时
发表于 4 天前 | 显示全部楼层
大哥现在发图有点飘啊
回复

拉黑 使用道具 举报

主题
395
活跃值
8254
热心值
117
盘币
6739
注册时间
2016-3-9
最后登录
2021-7-26
在线时间
1324 小时
发表于 4 天前 | 显示全部楼层
其他几部有吗
回复

拉黑 使用道具 举报

主题
7
活跃值
4641
热心值
5
盘币
235
注册时间
2017-1-14
最后登录
2021-7-25
在线时间
63 小时

老会员勋章

发表于 4 天前 | 显示全部楼层
支持一下
回复

拉黑 使用道具 举报

主题
0
活跃值
1686
热心值
0
盘币
471
注册时间
2018-3-9
最后登录
2021-7-25
在线时间
14 小时
发表于 3 天前 | 显示全部楼层
这个经典不解释啊 感谢了
回复

拉黑 使用道具 举报

主题
0
活跃值
6457
热心值
0
盘币
1014
注册时间
2017-10-21
最后登录
2021-7-26
在线时间
88 小时
发表于 3 天前 | 显示全部楼层
期待楼主带给大家更多精品!
回复

拉黑 使用道具 举报

主题
0
活跃值
577
热心值
0
盘币
109
注册时间
2018-3-10
最后登录
2021-7-26
在线时间
737 小时
发表于 3 天前 | 显示全部楼层
阴阳路系列电影前面几部都是很经典的
回复

拉黑 使用道具 举报

主题
303
活跃值
1134
热心值
47
盘币
424
注册时间
2018-11-28
最后登录
2021-7-25
在线时间
564 小时

长期在线阳光心情老会员勋章鼎力支持灌水之王

发表于 3 天前 来自手机 | 显示全部楼层
支持大佬,坐等魔翡翠
回复

拉黑 使用道具 举报

主题
1
活跃值
2711
热心值
3
盘币
586
注册时间
2018-1-11
最后登录
2021-7-23
在线时间
25 小时
发表于 3 天前 | 显示全部楼层
感谢感谢。。。。。
回复

拉黑 使用道具 举报

主题
42
活跃值
2361
热心值
81
盘币
1125
注册时间
2017-10-25
最后登录
2021-7-26
在线时间
1236 小时
发表于 前天 07:12 来自手机 | 显示全部楼层
六指琴魔 蓝光一直没出
回复

拉黑 使用道具 举报

严禁灌水、讽刺、挖苦、辱骂分享者行为。回复前请详读:点击进入 理性回复,以免永久封禁。
您需要登录后才可以回帖 登录 | 加入论坛

本版积分规则

免责声明:本站所有资源均收集自互联网,没有提供影片资源存储,也未参与录制、上传。若本站收录的资源涉及您的版权或知识产权或其他利益,请附上版权证明邮件告知,在收到邮件后24小时内删除。

Copyright © 2012 [盘乐网] 管理员邮箱:admin#pan6.com(#=@)

站长信箱|sitemap|手机版|小黑屋|百度统计|盘乐网 ( 粤ICP备18120611号 )

快速回复 返回顶部 返回列表