盘乐网

 找回密码
 加入论坛
提示:多个关键词中间加空格 例如:天龙八部 星河
楼主: 至尊宝c

[BD-1080P] [中国香港][1988][霹雳先锋][李修贤/周星驰/成奎安][犯罪][国粤语简繁软中字][1080P][MKV/5.93G][港版蓝光修复无水印][FRDS] 含百度网盘 含115网盘

[复制链接]

主题
2960
活跃值
20687
热心值
2407
盘币
437467
注册时间
2018-4-7
最后登录
2021-12-3
在线时间
1697 小时

长期在线阳光心情老会员勋章鼎力支持我是土豪优秀会员普通精华热心人士爱心满满灌水之王荣誉会员资源组成员动漫达人夜猫子

发表于 2021-8-20 10:33:31 | 显示全部楼层 |阅读模式
请尊重分享者,本资源仅限交流未经楼主同意严禁转载或盈利,违者封号处理!
p2455109828_gaitubao_455x572.jpg

◎译  名 霹雳先锋 / Pik lik sin fung / Final Justice
◎片  名 霹靂先鋒
◎年  代 1988
◎产  地 中国香港
◎类  别 喜剧 / 动作 / 犯罪
◎语  言 汉语普通话/粤语
◎上映日期 1988-06-23(中国香港)
◎IMDb评星  ★★★★★★☆☆☆☆
◎IMDb评分  6.2/10 from 302 users
◎IMDb链接  https://www.imdb.com/title/tt0126301/
◎豆瓣评星 ★★★✦☆
◎豆瓣评分 7.2/10 from 13,446 users
◎豆瓣链接 https://movie.douban.com/subject/1871220/
◎片  长 95分钟 / 98分钟(蓝光修复版)
◎导  演 黄柏文 / Parkman Wong
◎演  员 李修贤 / Danny Lee | 饰 张铁柱
      周星驰 / Stephen Chow | 饰 阿Boy / 伟仔
      成奎安 / Fui-On Shing | 饰 法官
      何家驹 / Ka-Kui Ho | 饰 缩骨
      黄光亮 / Kwong Leung Wong | 饰 狂牛
      韩坤 / Victor Hon Kwan | 饰 鸡精
      王俊棠 / Ricky Wong Chun-Tong | 饰 罗大卫
      卢惠光 / Ken Lo
      杨玉梅 / Yuk-Mui Yeung
      黄志强 / Kirk Wong
      英俊超 | 饰 擦鞋超
      徐婉薇 / Debbre Tsui
      洪同剑 / Tung-Kim Hung | 饰 阿金 小毛头
      罗树琪 / Shu-Kei Law | 饰 校长
      林富伟 / Fu-wai Lam
      林志泰 / Chi Tai Lam
◎编  剧 冯瑞熊 / James Fung
◎制  片  人 李修贤 / Danny Lee
      黎继明 / Kai Ming Lai
◎副  导  演 黎继强 / Kai Keung Lai
◎动作特技 元彬 / Bun Yuen

◎标  签 周星驰 | 香港 | 李修贤 | 警匪 | 动作 | 香港电影 | 喜剧 | 1988

◎简  介 

  华探长张铁柱(李修贤 饰)打拼十几年才有了探长地位,此人嫉恶如仇不事逢迎,与新任督察罗Sir多有摩擦,辛苦破案结果反被后者刁难。另一方面,悍匪“法官”(成奎安 饰)一伙购枪策划大行动,偷车贼伟仔(周星驰 饰)被法官收为外围助手,向其提供犯罪用车。法官与手下狂牛(黄光亮 饰)和鸡翼( 何家驹 饰)等人洗劫赌档,同一天伟仔因偷车嫌疑被张铁柱抓捕入监,赌档事发,罗Sir不顾张铁柱作证将伟仔定为嫌疑人,令张与伟仔二人大为不满。张铁柱将伟仔释放,同时要求伟仔合作抓捕法官一伙。购入武器的法官一伙战力大增,行事愈发嚣张,与其他帮派当街火并,伟仔被卷入杀人案件,只得配合张铁柱,一警一贼终于开始合作……

◎获奖情况 

  第25届台北金马影展 (1988)
  金马奖 最佳男配角 周星驰

  第8届香港电影金像奖 (1989)
  最佳男配角(提名) 周星驰
  最佳新演员(提名) 周星驰

◎幕后揭秘

  、本片是周星弛的电影处女作,身为制作人的李修贤提拔他出演了该片的主要角色,给了他发挥自己演技的余地。而周星驰则也不负众望,凭借本片中出色的演绎,获得了第二十五届台湾金马奖的最佳男配角。影片的故事有着《边缘人》、《龙虎风云》等片的诸多影子,描述的是警察与流氓之间的江湖交情。导演黄柏文将整个戏剧拍得流畅自然,在高度娱乐性之外也提出对香港社会法律和秩序的嘲讽,反映了当时当地的时代压迫感在类型电影中具有一点突破性。


◎截    图
霹雳先锋.1988.BDRip.Final Justice.HKG.2Audio.@FRDS.mkv_20210819_233315.688.jpg 霹雳先锋.1988.BDRip.Final Justice.HKG.2Audio.@FRDS.mkv_20210819_233330.304.jpg 霹雳先锋.1988.BDRip.Final Justice.HKG.2Audio.@FRDS.mkv_20210819_233302.587.jpg 霹雳先锋.1988.BDRip.Final Justice.HKG.2Audio.@FRDS.mkv_20210819_233252.521.jpg

霹雳先锋.1988.BDRip.Final Justice.HKG.2Audio.@FRDS.mkv.jpg

  1. Video
  2. ID                             : 1
  3. Format                         : HEVC
  4. Format/Info                    : High Efficiency Video Coding
  5. Format profile                 : Main 10@L4@Main
  6. Codec ID                       : V_MPEGH/ISO/HEVC
  7. Duration                       : 1 h 37 min
  8. Bit rate                       : 7 363 kb/s
  9. Width                          : 1 920 pixels
  10. Height                         : 1 040 pixels
  11. Display aspect ratio           : 1.85:1
  12. Frame rate mode                : Constant
  13. Frame rate                     : 24.000 FPS
  14. Color space                    : YUV
  15. Chroma subsampling             : 4:2:0
  16. Bit depth                      : 10 bits
  17. Bits/(Pixel*Frame)             : 0.154
  18. Stream size                    : 5.04 GiB (85%)
  19. Title                          : @至尊宝
  20. Writing library                : x265 2.4+6-fd01abfc7898:[Windows][GCC 6.3.0][64 bit] 10bit
  21. Encoding settings              : cpuid=1173503 / frame-threads=6 / numa-pools=36 / wpp / no-pmode / no-pme / no-psnr / no-ssim / log-level=2 / input-csp=1 / input-res=1920x1040 / interlace=0 / total-frames=141024 / level-idc=0 / high-tier=1 / uhd-bd=0 / ref=5 / no-allow-non-conformance / no-repeat-headers / annexb / no-aud / no-hrd / info / hash=0 / no-temporal-layers / no-open-gop / min-keyint=1 / keyint=360 / bframes=8 / b-adapt=2 / b-pyramid / bframe-bias=0 / rc-lookahead=60 / lookahead-slices=4 / scenecut=40 / no-intra-refresh / ctu=32 / min-cu-size=8 / no-rect / no-amp / max-tu-size=16 / tu-inter-depth=2 / tu-intra-depth=2 / limit-tu=4 / rdoq-level=2 / dynamic-rd=0.00 / ssim-rd / signhide / no-tskip / nr-intra=0 / nr-inter=0 / no-constrained-intra / no-strong-intra-smoothing / max-merge=3 / limit-refs=1 / limit-modes / me=3 / subme=5 / merange=25 / temporal-mvp / weightp / weightb / no-analyze-src-pics / deblock=-1:-1 / no-sao / no-sao-non-deblock / rd=4 / no-early-skip / rskip / no-fast-intra / no-tskip-fast / no-cu-lossless / b-intra / rdpenalty=1 / psy-rd=0.00 / psy-rdoq=5.00 / no-rd-refine / analysis-mode=0 / no-lossless / cbqpoffs=-2 / crqpoffs=-2 / rc=crf / crf=21.0 / qcomp=0.70 / qpstep=4 / stats-write=0 / stats-read=0 / ipratio=1.40 / pbratio=1.30 / aq-mode=2 / aq-strength=0.80 / cutree / zone-count=0 / no-strict-cbr / qg-size=16 / no-rc-grain / qpmax=69 / qpmin=0 / sar=0 / overscan=0 / videoformat=5 / range=0 / colorprim=1 / transfer=2 / colormatrix=2 / chromaloc=0 / display-window=0 / max-cll=0,0 / min-luma=0 / max-luma=1023 / log2-max-poc-lsb=8 / vui-timing-info / vui-hrd-info / slices=1 / opt-qp-pps / opt-ref-list-length-pps / no-multi-pass-opt-rps / scenecut-bias=0.05 / no-opt-cu-delta-qp / no-aq-motion / no-hdr / no-hdr-opt / no-dhdr10-opt / refine-level=5 / no-limit-sao
  22. Language                       : Chinese
  23. Default                        : Yes
  24. Forced                         : No
  25. Color range                    : Limited
  26. Color primaries                : BT.709

  27. Audio #1
  28. ID                             : 2
  29. Format                         : AC-3
  30. Format/Info                    : Audio Coding 3
  31. Commercial name                : Dolby Digital
  32. Format settings                : Dolby Surround EX
  33. Codec ID                       : A_AC3
  34. Duration                       : 1 h 37 min
  35. Bit rate mode                  : Constant
  36. Bit rate                       : 640 kb/s
  37. Channel(s)                     : 6 channels
  38. Channel layout                 : L R C LFE Ls Rs
  39. Sampling rate                  : 48.0 kHz
  40. Frame rate                     : 31.250 FPS (1536 SPF)
  41. Compression mode               : Lossy
  42. Stream size                    : 448 MiB (7%)
  43. Title                          : 国语
  44. Language                       : Chinese
  45. Service kind                   : Complete Main
  46. Default                        : Yes
  47. Forced                         : No

  48. Audio #2
  49. ID                             : 3
  50. Format                         : AC-3
  51. Format/Info                    : Audio Coding 3
  52. Commercial name                : Dolby Digital
  53. Format settings                : Dolby Surround EX
  54. Codec ID                       : A_AC3
  55. Duration                       : 1 h 37 min
  56. Bit rate mode                  : Constant
  57. Bit rate                       : 640 kb/s
  58. Channel(s)                     : 6 channels
  59. Channel layout                 : L R C LFE Ls Rs
  60. Sampling rate                  : 48.0 kHz
  61. Frame rate                     : 31.250 FPS (1536 SPF)
  62. Compression mode               : Lossy
  63. Stream size                    : 448 MiB (7%)
  64. Title                          : 粤语
  65. Language                       : Chinese
  66. Service kind                   : Complete Main
  67. Default                        : No
  68. Forced                         : No

  69. Text #1
  70. ID                             : 4
  71. Format                         : ASS
  72. Codec ID                       : S_TEXT/ASS
  73. Codec ID/Info                  : Advanced Sub Station Alpha
  74. Duration                       : 1 h 35 min
  75. Bit rate                       : 162 b/s
  76. Count of elements              : 1599
  77. Compression mode               : Lossless
  78. Stream size                    : 113 KiB (0%)
  79. Title                          : 国语简体
  80. Language                       : Chinese
  81. Default                        : Yes
  82. Forced                         : No

  83. Text #2
  84. ID                             : 5
  85. Format                         : ASS
  86. Codec ID                       : S_TEXT/ASS
  87. Codec ID/Info                  : Advanced Sub Station Alpha
  88. Duration                       : 1 h 35 min
  89. Bit rate                       : 162 b/s
  90. Count of elements              : 1599
  91. Compression mode               : Lossless
  92. Stream size                    : 113 KiB (0%)
  93. Title                          : 国语繁体
  94. Language                       : Chinese
  95. Default                        : No
  96. Forced                         : No

  97. Text #3
  98. ID                             : 6
  99. Format                         : ASS
  100. Codec ID                       : S_TEXT/ASS
  101. Codec ID/Info                  : Advanced Sub Station Alpha
  102. Duration                       : 1 h 35 min
  103. Bit rate                       : 148 b/s
  104. Count of elements              : 1463
  105. Compression mode               : Lossless
  106. Stream size                    : 104 KiB (0%)
  107. Title                          : 粤语简体
  108. Language                       : Chinese
  109. Default                        : No
  110. Forced                         : No

  111. Text #4
  112. ID                             : 7
  113. Format                         : ASS
  114. Codec ID                       : S_TEXT/ASS
  115. Codec ID/Info                  : Advanced Sub Station Alpha
  116. Duration                       : 1 h 35 min
  117. Bit rate                       : 148 b/s
  118. Count of elements              : 1463
  119. Compression mode               : Lossless
  120. Stream size                    : 104 KiB (0%)
  121. Title                          : 粤语繁体
  122. Language                       : Chinese
  123. Default                        : No
  124. Forced                         : No

  125. Menu
  126. 00:00:00.000                   : en:Chapter 01
  127. 00:05:16.333                   : en:Chapter 02
  128. 00:10:25.416                   : en:Chapter 03
  129. 00:14:32.000                   : en:Chapter 04
  130. 00:17:01.875                   : en:Chapter 05
  131. 00:23:08.708                   : en:Chapter 06
  132. 00:27:51.083                   : en:Chapter 07
  133. 00:31:57.208                   : en:Chapter 08
  134. 00:37:03.166                   : en:Chapter 09
  135. 00:40:36.791                   : en:Chapter 10
  136. 00:43:10.541                   : en:Chapter 11
  137. 00:47:23.625                   : en:Chapter 12
  138. 00:52:25.375                   : en:Chapter 13
  139. 00:58:15.041                   : en:Chapter 14
  140. 01:02:10.125                   : en:Chapter 15
  141. 01:07:25.666                   : en:Chapter 16
  142. 01:11:02.625                   : en:Chapter 17
  143. 01:17:24.416                   : en:Chapter 18
  144. 01:23:22.541                   : en:Chapter 19
  145. 01:27:16.916                   : en:Chapter 20

复制代码


更新HEVC 10Bit 版本,内封国语+粤语对应的简繁软中字



点击进入百度网盘下载(←购买前请先验证分享链接是否有效)



此处内容付费可见

此处内容需要向楼主支付盘币或购买VIP才能显示 已有 31 人购买 

支付 5 盘币 升级VIP


该资源其他网盘分享渠道→点此了解功能详情

使用115网盘下载(来自 至尊宝c 的分享,下载需要单独支付 5 盘币)

免责申明 - 论坛版权1、本站所有资源均来自会员分享或网络收集整理,仅供会员交流学习,禁用商业用途或盈利,下载后请在24小时之内删除;
2、本站(www.pan6.com)支持正版,本资源版权归版权方所有,观看或阅读请到相应机构购买正版资源;
3、本站资源均来源于网络,本站不参与录制、上传,如本帖侵犯到任何版权问题,请立即告知本站(admin#pan6.com(#=@)),本站将及时予与删除并致以最深的歉意;
楼主热贴推荐
华语影视爱好者
BT资源无法下载:戳这里,不会发帖、金币相关等新手问题:戳这里
回复

拉黑 使用道具 举报

为保留有用回复信息,此处有 31 个购买者的感谢留言已隐藏

主题
8
活跃值
244
热心值
0
盘币
3
注册时间
2019-10-2
最后登录
2021-12-4
在线时间
761 小时
发表于 2021-8-20 16:49:03 来自手机 | 显示全部楼层
港版画质一般。
回复

拉黑 使用道具 举报

主题
8
活跃值
244
热心值
0
盘币
3
注册时间
2019-10-2
最后登录
2021-12-4
在线时间
761 小时
发表于 2021-8-20 16:49:27 来自手机 | 显示全部楼层
港版画质一般。
回复

拉黑 使用道具 举报

严禁灌水、讽刺、挖苦、辱骂分享者行为。回复前请详读:点击进入 理性回复,以免永久封禁。
您需要登录后才可以回帖 登录 | 加入论坛

本版积分规则

免责声明:本站所有资源均收集自互联网,没有提供影片资源存储,也未参与录制、上传。若本站收录的资源涉及您的版权或知识产权或其他利益,请附上版权证明邮件告知,在收到邮件后24小时内删除。

Copyright © 2012 [盘乐网] 管理员邮箱:admin#pan6.com(#=@)

站长信箱|sitemap|手机版|小黑屋|百度统计|盘乐网 ( 粤ICP备18120611号 )

快速回复 返回顶部 返回列表