盘乐网

 找回密码
 加入论坛
提示:多个关键词中间加空格 例如:天龙八部 星河
楼主: 至尊宝c

[BD-1080P] [中国香港][1990][无敌幸运星][周星驰/吴君如/陈友][喜剧][国粤语简繁软中字][1080P][MKV/5.64G][港版蓝光修复无水印] 含百度网盘 含115网盘

[复制链接]

主题
2960
活跃值
20687
热心值
2407
盘币
437492
注册时间
2018-4-7
最后登录
2021-12-4
在线时间
1697 小时

长期在线阳光心情老会员勋章鼎力支持我是土豪优秀会员普通精华热心人士爱心满满灌水之王荣誉会员资源组成员动漫达人夜猫子

发表于 2021-9-6 16:04:53 | 显示全部楼层 |阅读模式
请尊重分享者,本资源仅限交流未经楼主同意严禁转载或盈利,违者封号处理!
p2453122655_gaitubao_455x645.jpg
无敌幸运星.png
◎译  名 无敌幸运星 / When Fortune Smiles
◎片  名 無敵幸運星
◎年  代 1990
◎产  地 中国香港
◎类  别 喜剧 / 动作
◎语  言 汉语普通话/粤语
◎上映日期 1990-09-27(中国香港)
◎IMDb评星  ★★★★★★✦☆☆☆
◎IMDb评分  6.3/10 from 597 users
◎IMDb链接  https://www.imdb.com/title/tt0100959/
◎豆瓣评星 ★★★✦☆
◎豆瓣评分 7.1/10 from 55,994 users
◎豆瓣链接 https://movie.douban.com/subject/1400668/
◎片  长 90分钟
◎导  演 陈友 / Anthony Chan
◎演  员 周星驰 / Stephen Chow | 饰 幸运星
      吴君如 / Sandra Ng | 饰 巢飞飞
      陈友 / Anthony Chan
      黄秋生 / Anthony Wong Chau-Sang
      梅小惠 / Siu-Wai Mui
      成奎安 / Fui-On Shing
      林蛟 / Kau Lam
      周比利 / Billy Chow
      翁世杰 / Sai-Kit Yung
      程守一 / Billy Sau Yat Ching
      米奇 / Kei Mai | 饰 老鬼
      许英秀 / YingSau Hui | 饰 曹老爷
      甘露 / Lo Kam | 饰 奶妈
      雷达 / Tat Lui
      西瓜刨 / Gwa-pau Sai | 饰 曹家司机
      侯焕玲 / Woon Ling Hau
      潘健君 / Kin-Kwan Poon | 饰 秋之手下
      简达华 / Tat-Wah Gan
      陈文妤 / Man-Hiu Chan
      林富伟 / Fu-wai Lam
◎编  剧 杜国威 / Raymond To
◎制  片  人 范剑雄 / Kim Hung Fan
      陈友 / Anthony Chan
◎音  乐 袁卓凡 / Richard Yuen
◎摄  影 温文杰 / Derek Wan
      陈广鸿 / Kwong-Hung Chan
◎剪  辑 余纯 / Shung Yu
      邝志良 / Chi-Leung Kwong
◎美  术 李耀光 / Yiu Gwong Lee
◎副  导  演 林子皓 / Bosco Lam
◎动作特技 梁小熊 / Siu-Hung Leung
      张午郎 / John Cheung

◎标  签 周星驰 | 喜剧 | 香港 | 香港电影 | 吴君如 | 搞笑 | 1990 | 电影

◎简  介 

  富商巢老爷临终立下遗嘱,将所有遗产都传给远在法国的女儿飞飞(吴君如 饰),遗嘱由巢二爷保管。巢老爷的不肖子秋千方百计想修改遗嘱,而二爷的不肖子大傻亦想取得遗嘱私自修改。一晚,幸运星(周星驰 饰)到巢家偷窃时被大傻抓住,见他偷窃有一手,大傻命令幸运星帮助自己偷遗嘱。而阿秋 亦无意中发现在垃圾场专门捡垃圾的垃圾凤(吴君如 饰)样貌竟然和他妹妹飞飞一模一样,于是命令阿凤假扮其妹骗取二爷掌管的遗产。
  就在二爷去迎接从法国回来的假飞飞(阿凤)的晚上,幸运星按大傻吩咐潜到了巢家大宅去偷遗嘱。不料事情败露,被二爷抓个正着。情急之下,幸运星谎称自己是飞飞多年前的男友,企图蒙混过关。而不知就里的阿凤怕露出马脚,也承认了幸运星是她的男友。于是一场笑料百出的遗产争夺战开始了。


◎截    图
无敌幸运星.1990.BDRip.When Fortune Smiles.HKG.2Audio.@至尊宝.mkv_20210906_142108.jpg 无敌幸运星.1990.BDRip.When Fortune Smiles.HKG.2Audio.@至尊宝.mkv_20210906_142042.jpg 无敌幸运星.1990.BDRip.When Fortune Smiles.HKG.2Audio.@至尊宝.mkv_20210906_142145.jpg 无敌幸运星.1990.BDRip.When Fortune Smiles.HKG.2Audio.@至尊宝.mkv_20210906_142120.jpg

无敌幸运星.1990.BDRip.When Fortune Smiles.HKG.2Audio.@至尊宝.mkv.jpg

  1. Video
  2. ID                             : 1
  3. Format                         : HEVC
  4. Format/Info                    : High Efficiency Video Coding
  5. Format profile                 : Main 10@L4@Main
  6. Codec ID                       : V_MPEGH/ISO/HEVC
  7. Duration                       : 1 h 34 min
  8. Bit rate                       : 7 216 kb/s
  9. Width                          : 1 920 pixels
  10. Height                         : 1 036 pixels
  11. Display aspect ratio           : 1.85:1
  12. Frame rate mode                : Constant
  13. Frame rate                     : 23.976 (24000/1001) FPS
  14. Color space                    : YUV
  15. Chroma subsampling             : 4:2:0
  16. Bit depth                      : 10 bits
  17. Bits/(Pixel*Frame)             : 0.151
  18. Stream size                    : 4.78 GiB (85%)
  19. Title                          : @至尊宝
  20. Writing library                : x265 2.4+6-fd01abfc7898:[Windows][GCC 6.3.0][64 bit] 10bit
  21. Encoding settings              : cpuid=1173503 / frame-threads=6 / numa-pools=36 / wpp / no-pmode / no-pme / no-psnr / no-ssim / log-level=2 / input-csp=1 / input-res=1920x1036 / interlace=0 / total-frames=136525 / level-idc=0 / high-tier=1 / uhd-bd=0 / ref=5 / no-allow-non-conformance / no-repeat-headers / annexb / no-aud / no-hrd / info / hash=0 / no-temporal-layers / no-open-gop / min-keyint=1 / keyint=360 / bframes=8 / b-adapt=2 / b-pyramid / bframe-bias=0 / rc-lookahead=60 / lookahead-slices=4 / scenecut=40 / no-intra-refresh / ctu=32 / min-cu-size=8 / no-rect / no-amp / max-tu-size=16 / tu-inter-depth=2 / tu-intra-depth=2 / limit-tu=4 / rdoq-level=2 / dynamic-rd=0.00 / ssim-rd / signhide / no-tskip / nr-intra=0 / nr-inter=0 / no-constrained-intra / no-strong-intra-smoothing / max-merge=3 / limit-refs=1 / limit-modes / me=3 / subme=5 / merange=25 / temporal-mvp / weightp / weightb / no-analyze-src-pics / deblock=-1:-1 / no-sao / no-sao-non-deblock / rd=4 / no-early-skip / rskip / no-fast-intra / no-tskip-fast / no-cu-lossless / b-intra / rdpenalty=1 / psy-rd=0.00 / psy-rdoq=5.00 / no-rd-refine / analysis-mode=0 / no-lossless / cbqpoffs=-2 / crqpoffs=-2 / rc=crf / crf=21.0 / qcomp=0.70 / qpstep=4 / stats-write=0 / stats-read=0 / ipratio=1.40 / pbratio=1.30 / aq-mode=2 / aq-strength=0.80 / cutree / zone-count=0 / no-strict-cbr / qg-size=16 / no-rc-grain / qpmax=69 / qpmin=0 / sar=0 / overscan=0 / videoformat=5 / range=0 / colorprim=1 / transfer=2 / colormatrix=2 / chromaloc=0 / display-window=0 / max-cll=0,0 / min-luma=0 / max-luma=1023 / log2-max-poc-lsb=8 / vui-timing-info / vui-hrd-info / slices=1 / opt-qp-pps / opt-ref-list-length-pps / no-multi-pass-opt-rps / scenecut-bias=0.05 / no-opt-cu-delta-qp / no-aq-motion / no-hdr / no-hdr-opt / no-dhdr10-opt / refine-level=5 / no-limit-sao
  22. Language                       : Chinese
  23. Default                        : Yes
  24. Forced                         : No
  25. Color range                    : Limited
  26. Color primaries                : BT.709

  27. Audio #1
  28. ID                             : 2
  29. Format                         : AC-3
  30. Format/Info                    : Audio Coding 3
  31. Commercial name                : Dolby Digital
  32. Format settings                : Dolby Surround EX
  33. Codec ID                       : A_AC3
  34. Duration                       : 1 h 34 min
  35. Bit rate mode                  : Constant
  36. Bit rate                       : 640 kb/s
  37. Channel(s)                     : 6 channels
  38. Channel layout                 : L R C LFE Ls Rs
  39. Sampling rate                  : 48.0 kHz
  40. Frame rate                     : 31.250 FPS (1536 SPF)
  41. Compression mode               : Lossy
  42. Stream size                    : 434 MiB (8%)
  43. Title                          : 国语
  44. Language                       : Chinese
  45. Service kind                   : Complete Main
  46. Default                        : Yes
  47. Forced                         : No

  48. Audio #2
  49. ID                             : 3
  50. Format                         : AC-3
  51. Format/Info                    : Audio Coding 3
  52. Commercial name                : Dolby Digital
  53. Codec ID                       : A_AC3
  54. Duration                       : 1 h 34 min
  55. Bit rate mode                  : Constant
  56. Bit rate                       : 640 kb/s
  57. Channel(s)                     : 6 channels
  58. Channel layout                 : L R C LFE Ls Rs
  59. Sampling rate                  : 48.0 kHz
  60. Frame rate                     : 31.250 FPS (1536 SPF)
  61. Compression mode               : Lossy
  62. Stream size                    : 434 MiB (8%)
  63. Title                          : 粤语
  64. Language                       : Chinese
  65. Service kind                   : Complete Main
  66. Default                        : No
  67. Forced                         : No

  68. Text #1
  69. ID                             : 4
  70. Format                         : ASS
  71. Codec ID                       : S_TEXT/ASS
  72. Codec ID/Info                  : Advanced Sub Station Alpha
  73. Duration                       : 1 h 32 min
  74. Bit rate                       : 154 b/s
  75. Count of elements              : 1556
  76. Compression mode               : Lossless
  77. Stream size                    : 105 KiB (0%)
  78. Title                          : 国语简体
  79. Language                       : Chinese
  80. Default                        : Yes
  81. Forced                         : No

  82. Text #2
  83. ID                             : 5
  84. Format                         : ASS
  85. Codec ID                       : S_TEXT/ASS
  86. Codec ID/Info                  : Advanced Sub Station Alpha
  87. Duration                       : 1 h 32 min
  88. Bit rate                       : 154 b/s
  89. Count of elements              : 1556
  90. Compression mode               : Lossless
  91. Stream size                    : 105 KiB (0%)
  92. Title                          : 国语繁体
  93. Language                       : Chinese
  94. Default                        : No
  95. Forced                         : No

  96. Text #3
  97. ID                             : 6
  98. Format                         : ASS
  99. Codec ID                       : S_TEXT/ASS
  100. Codec ID/Info                  : Advanced Sub Station Alpha
  101. Duration                       : 1 h 32 min
  102. Bit rate                       : 134 b/s
  103. Count of elements              : 1327
  104. Compression mode               : Lossless
  105. Stream size                    : 91.1 KiB (0%)
  106. Title                          : 粤语简体
  107. Language                       : Chinese
  108. Default                        : No
  109. Forced                         : No

  110. Text #4
  111. ID                             : 7
  112. Format                         : ASS
  113. Codec ID                       : S_TEXT/ASS
  114. Codec ID/Info                  : Advanced Sub Station Alpha
  115. Duration                       : 1 h 32 min
  116. Bit rate                       : 134 b/s
  117. Count of elements              : 1327
  118. Compression mode               : Lossless
  119. Stream size                    : 91.1 KiB (0%)
  120. Title                          : 粤语繁体
  121. Language                       : Chinese
  122. Default                        : No
  123. Forced                         : No

  124. Menu
  125. 00:00:00.000                   : en:Chapter 01
  126. 00:02:22.475                   : en:Chapter 02
  127. 00:06:32.225                   : en:Chapter 03
  128. 00:14:36.166                   : en:Chapter 04
  129. 00:18:16.637                   : en:Chapter 05
  130. 00:21:59.609                   : en:Chapter 06
  131. 00:28:55.859                   : en:Chapter 07
  132. 00:32:28.696                   : en:Chapter 08
  133. 00:37:44.637                   : en:Chapter 09
  134. 00:42:14.615                   : en:Chapter 10
  135. 00:46:32.706                   : en:Chapter 11
  136. 00:50:22.227                   : en:Chapter 12
  137. 00:56:35.809                   : en:Chapter 13
  138. 00:59:27.814                   : en:Chapter 14
  139. 01:03:50.910                   : en:Chapter 15
  140. 01:06:59.640                   : en:Chapter 16
  141. 01:11:15.646                   : en:Chapter 17
  142. 01:20:08.678                   : en:Chapter 18
  143. 01:24:07.459                   : en:Chapter 19
  144. 01:31:57.303                   : en:Chapter 20

复制代码


洗掉之前的版本,更新HEVC 10bit 版本,追加国语字幕


点击进入百度网盘下载(←购买前请先验证分享链接是否有效)



此处内容付费可见

此处内容需要向楼主支付盘币或购买VIP才能显示 已有 43 人购买 

支付 5 盘币 升级VIP


该资源其他网盘分享渠道→点此了解功能详情

使用115网盘下载(来自 至尊宝c 的分享,下载需要单独支付 5 盘币)

免责申明 - 论坛版权1、本站所有资源均来自会员分享或网络收集整理,仅供会员交流学习,禁用商业用途或盈利,下载后请在24小时之内删除;
2、本站(www.pan6.com)支持正版,本资源版权归版权方所有,观看或阅读请到相应机构购买正版资源;
3、本站资源均来源于网络,本站不参与录制、上传,如本帖侵犯到任何版权问题,请立即告知本站(admin#pan6.com(#=@)),本站将及时予与删除并致以最深的歉意;
楼主热贴推荐
华语影视爱好者
BT资源无法下载:戳这里,不会发帖、金币相关等新手问题:戳这里
回复

拉黑 使用道具 举报

为保留有用回复信息,此处有 43 个购买者的感谢留言已隐藏
严禁灌水、讽刺、挖苦、辱骂分享者行为。回复前请详读:点击进入 理性回复,以免永久封禁。
您需要登录后才可以回帖 登录 | 加入论坛

本版积分规则

免责声明:本站所有资源均收集自互联网,没有提供影片资源存储,也未参与录制、上传。若本站收录的资源涉及您的版权或知识产权或其他利益,请附上版权证明邮件告知,在收到邮件后24小时内删除。

Copyright © 2012 [盘乐网] 管理员邮箱:admin#pan6.com(#=@)

站长信箱|sitemap|手机版|小黑屋|百度统计|盘乐网 ( 粤ICP备18120611号 )

快速回复 返回顶部 返回列表