盘乐网

 找回密码
 加入论坛

QQ登录

只需一步,快速开始

提示:多个关键词中间加空格 例如:天龙八部 星河
查看: 1559|回复: 145

[WEB-DL] [百度云+115][中国香港][1988][群莺乱舞][郑少秋/关之琳/利智][完整版][国粤语简硬中字][1080P][MKV/4.94G][超清修复无水印][至尊宝] 含百度网盘 含115网盘

  [复制链接]

主题
2690
活跃值
19129
热心值
2091
盘币
355481
注册时间
2018-4-7
最后登录
2021-9-22
在线时间
1596 小时

长期在线阳光心情老会员勋章鼎力支持我是土豪优秀会员普通精华热心人士爱心满满灌水之王荣誉会员资源组成员动漫达人夜猫子

发表于 2021-9-14 15:16:54 | 显示全部楼层 |阅读模式
请尊重分享者,本资源仅限交流未经楼主同意严禁转载或盈利,违者封号处理!



◎译  名 群莺乱舞 / Profiles of Pleasure / Qun ying luan wu
◎片  名 群鶯亂舞
◎年  代 1988
◎产  地 中国香港
◎类  别 剧情
◎语  言 汉语普通话/粤语
◎上映日期 1988-05-05
◎IMDb评星  ★★★★★★☆☆☆☆
◎IMDb评分  6.1/10 from 40 users
◎IMDb链接  https://www.imdb.com/title/tt0093814/
◎豆瓣评星 ★★★✦☆
◎豆瓣评分 6.7/10 from 845 users
◎豆瓣链接 https://movie.douban.com/subject/1298205/
◎片  长 01:32:11
◎导  演 区丁平 / Tony Au
◎演  员 郑少秋 / Adam Cheng
      关之琳 / Rosamund Kwan
      利智 / Nina Li Chi
      刘嘉玲 / Carina Lau
      甘国卫 / Sam Kam
      张叔平 / William Chang
      陈佩珊 / Joanna Chan Pui-San
      刘玉婷 / Yuk-Ting Lau
      秦沛 / Paul Chun
      郑丹瑞 / Lawrence Cheng
◎编  剧 张锦满 / Kam-moon Cheung
◎摄  影 黄仲标 / Bill Wong
◎服  装 周志华

◎标  签 香港 | 关之琳 | 香港电影 | 郑少秋 | 利智 | 刘嘉玲 | 1988 | 区丁平

◎简  介 

  故事发生在一间名为咏花寨的妓寨之中,其中坐镇着美艳风流的花艳红(利智 饰)、芙蓉出水的陆千千(关之琳 饰)、清纯可人的玉叶和热情奔放的金枝。艳光四射的女子们让咏花寨成为了所有男人们垂涎三尺的桃源乡,每一个华灯初上的夜晚,都是这里最为热闹之时。
  政府颁布了禁娼令,并派遣了禁娼专员程立邦(郑少秋 饰)前往咏花寨进行暗访,和程立邦一起的,还有他的未婚妻莉莉(刘嘉玲 饰)。哪知道,即便刚正不阿如程立邦,却也无法抵挡花艳红等人的诱惑,发现自己的未婚夫心猿意马,焦急的莉莉只得转而向警察厅长朱爷(秦沛 饰)求助。

◎获奖情况 

  第25届台北金马影展 (1988)
  金马奖 最佳造型设计(提名) 周志华,区丁平
  金马奖 最佳原创歌曲(提名)

  第8届香港电影金像奖 (1989)
  最佳摄影(提名) 黄仲标
  最佳原创电影音乐(提名) 罗永辉
  最佳原创电影歌曲(提名) 罗永辉

◎截    图
群莺乱舞.1988.完整版.WEB-DL.Profiles of Pleasure.2Audio.@至尊宝.mkv_20210914_143.jpg 群莺乱舞.1988.完整版.WEB-DL.Profiles of Pleasure.2Audio.@至尊宝.mkv_20210914_143.jpg 群莺乱舞.1988.完整版.WEB-DL.Profiles of Pleasure.2Audio.@至尊宝.mkv_20210914_143.jpg 群莺乱舞.1988.完整版.WEB-DL.Profiles of Pleasure.2Audio.@至尊宝.mkv_20210914_143.jpg

群莺乱舞.1988.完整版.WEB-DL.Profiles of Pleasure.2Audio.@至尊宝.mkv.jpg

  1. Video
  2. ID                             : 1
  3. Format                         : HEVC
  4. Format/Info                    : High Efficiency Video Coding
  5. Format profile                 : Main@L4.1@Main
  6. Codec ID                       : V_MPEGH/ISO/HEVC
  7. Duration                       : 1 h 32 min
  8. Bit rate                       : 7 027 kb/s
  9. Width                          : 1 902 pixels
  10. Height                         : 1 072 pixels
  11. Display aspect ratio           : 16:9
  12. Frame rate mode                : Constant
  13. Frame rate                     : 24.000 FPS
  14. Color space                    : YUV
  15. Chroma subsampling             : 4:2:0
  16. Bit depth                      : 8 bits
  17. Bits/(Pixel*Frame)             : 0.144
  18. Stream size                    : 4.52 GiB (92%)
  19. Title                          : @至尊宝
  20. Language                       : Chinese
  21. Default                        : Yes
  22. Forced                         : No

  23. Audio #1
  24. ID                             : 2
  25. Format                         : AAC LC
  26. Format/Info                    : Advanced Audio Codec Low Complexity
  27. Codec ID                       : A_AAC-2
  28. Duration                       : 1 h 32 min
  29. Bit rate                       : 317 kb/s
  30. Channel(s)                     : 2 channels
  31. Channel layout                 : L R
  32. Sampling rate                  : 48.0 kHz
  33. Frame rate                     : 46.875 FPS (1024 SPF)
  34. Compression mode               : Lossy
  35. Stream size                    : 209 MiB (4%)
  36. Title                          : 国语
  37. Language                       : Chinese
  38. Default                        : Yes
  39. Forced                         : No

  40. Audio #2
  41. ID                             : 3
  42. Format                         : AAC LC
  43. Format/Info                    : Advanced Audio Codec Low Complexity
  44. Codec ID                       : A_AAC-2
  45. Duration                       : 1 h 32 min
  46. Bit rate                       : 317 kb/s
  47. Channel(s)                     : 2 channels
  48. Channel layout                 : L R
  49. Sampling rate                  : 48.0 kHz
  50. Frame rate                     : 46.875 FPS (1024 SPF)
  51. Compression mode               : Lossy
  52. Stream size                    : 209 MiB (4%)
  53. Title                          : 粤语
  54. Language                       : Chinese
  55. Default                        : No
  56. Forced                         : No

复制代码

WEB-DL修复版+DVD合成完整版,一共八处删减,删减时长共2分30多,7处露点戏+1处关之琳和郑少秋的激情戏,删减的内容画质比较差,还有整部片子字幕是硬字幕的,介意勿买,未经允许,一律禁止转载,解压密码是:至尊宝,解压不了或者失败的请换支持解压RAR4的解压工具!


点击进入百度网盘下载(←购买前请先验证分享链接是否有效)


此处内容付费可见

此处内容需要向楼主支付盘币或购买VIP才能显示 已有 132 人购买 

支付 12 盘币 升级VIP


该资源其他网盘分享渠道→点此了解功能详情

使用115网盘下载(来自 至尊宝c 的分享,下载需要单独支付 12 盘币)

免责申明 - 论坛版权1、本站所有资源均来自会员分享或网络收集整理,仅供会员交流学习,禁用商业用途或盈利,下载后请在24小时之内删除;
2、本站(www.pan6.com)支持正版,本资源版权归版权方所有,观看或阅读请到相应机构购买正版资源;
3、本站资源均来源于网络,本站不参与录制、上传,如本帖侵犯到任何版权问题,请立即告知本站(admin#pan6.com(#=@)),本站将及时予与删除并致以最深的歉意;

点赞

参与人数 2热心值 +2

给力资源,感谢分享! + 1

楼主霸气! + 1

查看点赞详情

楼主热贴推荐
禁止倒卖资源,资源有问题请私信
BT资源无法下载:戳这里,不会发帖、金币相关等新手问题:戳这里
回复

拉黑 使用道具 举报

为保留有用回复信息,此处有 132 个购买者的感谢留言已隐藏

主题
438
活跃值
3731
热心值
192
盘币
12420
注册时间
2020-4-3
最后登录
2021-9-22
在线时间
1609 小时
发表于 2021-9-14 15:25:09 | 显示全部楼层
第三张图片点睛之笔
回复

拉黑 使用道具 举报

主题
2690
活跃值
19129
热心值
2091
盘币
355481
注册时间
2018-4-7
最后登录
2021-9-22
在线时间
1596 小时

长期在线阳光心情老会员勋章鼎力支持我是土豪优秀会员普通精华热心人士爱心满满灌水之王荣誉会员资源组成员动漫达人夜猫子

 楼主| 发表于 2021-9-14 15:43:08 | 显示全部楼层
372zhu 发表于 2021-9-14 15:25
第三张图片点睛之笔

像这样的片子里面很多
禁止倒卖资源,资源有问题请私信
回复

拉黑 使用道具 举报

主题
4
活跃值
1511
热心值
12
盘币
18
注册时间
2017-12-9
最后登录
2021-9-22
在线时间
90 小时
发表于 2021-9-14 16:12:44 | 显示全部楼层
楼主发贴辛苦了,谢谢楼主的精彩分享
回复

拉黑 使用道具 举报

主题
3
活跃值
1020
热心值
0
盘币
748
注册时间
2017-10-18
最后登录
2021-9-22
在线时间
594 小时
发表于 2021-9-14 17:23:24 来自手机 | 显示全部楼层
看起来不错
回复

拉黑 使用道具 举报

主题
59
活跃值
3099
热心值
36
盘币
267
注册时间
2017-6-3
最后登录
2021-9-22
在线时间
460 小时
发表于 2021-9-14 19:43:16 | 显示全部楼层
可惜了这硬字幕
回复

拉黑 使用道具 举报

主题
145
活跃值
2447
热心值
174
盘币
10936
注册时间
2018-6-12
最后登录
2021-9-22
在线时间
1079 小时

长期在线阳光心情老会员勋章普通精华

发表于 2021-9-14 22:58:50 | 显示全部楼层
下载看看,有利智露点么
回复

拉黑 使用道具 举报

主题
2690
活跃值
19129
热心值
2091
盘币
355481
注册时间
2018-4-7
最后登录
2021-9-22
在线时间
1596 小时

长期在线阳光心情老会员勋章鼎力支持我是土豪优秀会员普通精华热心人士爱心满满灌水之王荣誉会员资源组成员动漫达人夜猫子

 楼主| 发表于 2021-9-14 23:41:38 | 显示全部楼层
丛林风 发表于 2021-9-14 22:58
下载看看,有利智露点么

没有           
禁止倒卖资源,资源有问题请私信
回复

拉黑 使用道具 举报

主题
7
活跃值
1047
热心值
0
盘币
406
注册时间
2018-1-26
最后登录
2021-9-22
在线时间
10 小时
发表于 7 天前 | 显示全部楼层
谢谢楼主的精彩分享
回复

拉黑 使用道具 举报

主题
0
活跃值
342
热心值
0
盘币
634
注册时间
2018-4-22
最后登录
2021-9-22
在线时间
227 小时
发表于 7 天前 | 显示全部楼层
高清易得,完全版难得,还有完整香港风味的电影更难得,我最头疼港片简体字幕了!
回复

拉黑 使用道具 举报

主题
2
活跃值
313
热心值
2
盘币
229
注册时间
2018-5-6
最后登录
2021-9-22
在线时间
66 小时
发表于 7 天前 | 显示全部楼层
太厉害了~ 期待已久,感谢~
回复

拉黑 使用道具 举报

主题
1
活跃值
1368
热心值
0
盘币
658
注册时间
2017-12-12
最后登录
2021-9-21
在线时间
66 小时
发表于 5 天前 | 显示全部楼层
完整版6666了
回复

拉黑 使用道具 举报

主题
133
活跃值
2682
热心值
55
盘币
6035
注册时间
2018-11-25
最后登录
2021-9-22
在线时间
548 小时

长期在线阳光心情老会员勋章

发表于 3 天前 | 显示全部楼层
本帖最后由 小安可 于 2021-9-19 22:50 编辑

要是软字就好了
回复

拉黑 使用道具 举报

主题
0
活跃值
46
热心值
0
盘币
10
注册时间
2021-9-12
最后登录
2021-9-22
在线时间
10 小时
发表于 前天 02:42 | 显示全部楼层
解压密码是汉字“至尊宝”?
回复

拉黑 使用道具 举报

主题
59
活跃值
3099
热心值
36
盘币
267
注册时间
2017-6-3
最后登录
2021-9-22
在线时间
460 小时
发表于 前天 10:55 | 显示全部楼层
楼主,有没有殷亭如的苏醒?
回复

拉黑 使用道具 举报

主题
0
活跃值
0
热心值
0
盘币
0
注册时间
2019-4-16
最后登录
2021-9-20
在线时间
23 小时
发表于 前天 20:38 | 显示全部楼层
换了三个解压软件都说压缩包有错误。已经删除了。这种东西也能呈精品?
回复

拉黑 使用道具 举报

主题
2690
活跃值
19129
热心值
2091
盘币
355481
注册时间
2018-4-7
最后登录
2021-9-22
在线时间
1596 小时

长期在线阳光心情老会员勋章鼎力支持我是土豪优秀会员普通精华热心人士爱心满满灌水之王荣誉会员资源组成员动漫达人夜猫子

 楼主| 发表于 昨天 12:12 | 显示全部楼层
kingpapa 发表于 2021-9-20 20:38
换了三个解压软件都说压缩包有错误。已经删除了。这种东西也能呈精品?

那我为什么能解压,其他人能解压,就你不能解压,自己不找找原因就在这里喷,
禁止倒卖资源,资源有问题请私信
回复

拉黑 使用道具 举报

严禁灌水、讽刺、挖苦、辱骂分享者行为。回复前请详读:点击进入 理性回复,以免永久封禁。
您需要登录后才可以回帖 登录 | 加入论坛

本版积分规则

免责声明:本站所有资源均收集自互联网,没有提供影片资源存储,也未参与录制、上传。若本站收录的资源涉及您的版权或知识产权或其他利益,请附上版权证明邮件告知,在收到邮件后24小时内删除。

Copyright © 2012 [盘乐网] 管理员邮箱:admin#pan6.com(#=@)

站长信箱|sitemap|手机版|小黑屋|百度统计|盘乐网 ( 粤ICP备18120611号 )

快速回复 返回顶部 返回列表