盘乐网

 找回密码
 加入论坛

QQ登录

只需一步,快速开始

提示:多个关键词中间加空格 例如:天龙八部 星河
查看: 734|回复: 66

[WEB-DL] [中国香港][1986][霹雳大喇叭][洪金宝/张学友/王祖贤][喜剧][国粤语简繁软中字][1080P][MKV/4.08G][超清修复无水印] 含百度网盘 含115网盘

  [复制链接]

主题
2801
活跃值
19605
热心值
2234
盘币
390767
注册时间
2018-4-7
最后登录
2021-10-24
在线时间
1630 小时

长期在线阳光心情老会员勋章鼎力支持我是土豪优秀会员普通精华热心人士爱心满满灌水之王荣誉会员资源组成员动漫达人夜猫子

发表于 2021-10-9 15:28:38 | 显示全部楼层 |阅读模式
请尊重分享者,本资源仅限交流未经楼主同意严禁转载或盈利,违者封号处理!
74ee18c974e18fdd9b6c773292c73ce7_tplv-pk90l89vgd-crop-center_556_779_gaitubao_455x637.jpg

◎译  名 Where's Officer Tuba?
◎片  名 霹雳大喇叭
◎年  代 1986
◎产  地 中国香港
◎类  别 喜剧 / 恐怖
◎语  言 汉语普通话/粤语
◎上映日期 1986-03-20
◎IMDb评星  ★★★★★★☆☆☆☆
◎IMDb评分  6.1/10 from 191 users
◎IMDb链接  https://www.imdb.com/title/tt0095865/
◎豆瓣评星 ★★★✦☆
◎豆瓣评分 6.6/10 from 3,172 users
◎豆瓣链接 https://movie.douban.com/subject/1477288/
◎片  长 88 分钟
◎导  演 陈欣健 / Philip Chan
      刘观伟 / Ricky Lau
◎演  员 洪金宝 / Sammo Hung Kam-Bo
      张学友 / Jacky Cheung
      王祖贤 / Joey Wong
      姜大卫 / David Chiang
      冯淬帆 / Stanley Fung
      秦沛 / Paul Chun
      林正英 / Ching-Ying Lam
      元华 / Wah Yuen
      张坚庭 / Alfred Cheung
      太保 / Po Tai
      秦蔚文 / Wai Man Chun
      张冲 / Paul Chang Chung
      张翼 / Yi Chang
      区海伦 / Hoi-Lun Au
      卢雄 / Paul Lo
      冯雪瑞 / Xuerui Feng
      刘秋生 / Chau Sang Lau
      岑建勋 / John Sham
      杨斯 / Bolo Yeung
      田青 / Ching Tien
      黄正利 / Jang Lee Hwang
      黄锦燊 / Melvin Wong
      萧德虎 / Siu Tak-Foo
◎制  片  人 洪金宝 / Sammo Hung Kam-Bo
      朱嘉懿 / Julia Chu
      黄锦燊 / Melvin Wong
◎摄  影 黄岳泰 / Arthur Wong
◎副  导  演 周惠坤 / Thomas Chow
      刘秋生 / Chau Sang Lau
◎其  它 黄志明 / Wong Chi-Ming

◎标  签 喜剧 | 香港 | 王祖贤 | 洪金宝 | 张学友 | 香港电影 | 动作 | 姜大卫

◎简  介 

  陈文俊(洪金宝 饰)和张定其(张学友 饰)只是警队中的无名小卒,却在机缘巧合之下被指派到神探(姜大卫 饰)手下助其侦破“千面人”之案。没想到,一场意外中神探不幸丧生,可是,心愿未了的他显然不愿就此归去,而是化为冤魂,缠上了陈文俊和张定其两人,要他们破案为自己报仇。
  神探威胁陈文俊,若不帮他报仇,就要破坏他和女友乔娜(王祖贤 饰)之间的姻缘。经不住神探的死缠烂打和卑鄙威胁,个性胆小怕事的陈文俊只能答应下来。就这样,陈文俊和张定其开始了对案件的追查,在神探的暗中帮助下,他们最终将罪犯捉拿归案,陈文俊和乔娜亦有情人终成眷属。

◎幕后揭秘

  《霹雳大喇叭》是后进歌神张学友从影拍摄的第一部电影,当时的片酬很低,只有四万港币。第一次拍电影对学友来说心里免不了有些紧张,经验明显不足,一场打斗戏居然连连吃了六十个NG,创下了这样一个尴尬的次数。尽管如此,学友还是认认真真对待,直至导演满意为止。对此,执行导演黄自强不但没责怪,反而被学友的执着精神所感动。如今看这部电影,我们察觉初出茅庐的张学友其实表现的蛮抢眼,身上的喜剧天分已经显现大半。影片因故事轻松幽默,动作戏也精彩,而卖了个高票房。能够在大片云集的当年取得年度票房前十名的成绩,斩获一千六百多万港币,也算是不易了。


◎截      图
霹雳大喇叭.1986.WEB-DL.Where's Officer Tuba.2Audio.@至尊宝.mkv_20211009_143.jpg 霹雳大喇叭.1986.WEB-DL.Where's Officer Tuba.2Audio.@至尊宝.mkv_20211009_143.jpg 霹雳大喇叭.1986.WEB-DL.Where's Officer Tuba.2Audio.@至尊宝.mkv_20211009_143.jpg 霹雳大喇叭.1986.WEB-DL.Where's Officer Tuba.2Audio.@至尊宝.mkv_20211009_142.jpg

霹雳大喇叭.1986.WEB-DL.Where's Officer Tuba.2Audio.@至尊宝.mkv.jpg
  1. Video
  2. ID                             : 1
  3. Format                         : HEVC
  4. Format/Info                    : High Efficiency Video Coding
  5. Format profile                 : Main@L4@Main
  6. Codec ID                       : V_MPEGH/ISO/HEVC
  7. Duration                       : 1 h 33 min
  8. Bit rate                       : 6 000 kb/s
  9. Width                          : 1 920 pixels
  10. Height                         : 1 080 pixels
  11. Display aspect ratio           : 16:9
  12. Frame rate mode                : Constant
  13. Frame rate                     : 24.000 FPS
  14. Standard                       : Component
  15. Color space                    : YUV
  16. Chroma subsampling             : 4:2:0
  17. Bit depth                      : 8 bits
  18. Bits/(Pixel*Frame)             : 0.121
  19. Stream size                    : 3.90 GiB (96%)
  20. Title                          : @至尊宝
  21. Default                        : Yes
  22. Forced                         : No
  23. Color range                    : Limited
  24. Color primaries                : BT.709
  25. Transfer characteristics       : BT.709
  26. Matrix coefficients            : BT.709

  27. Audio #1
  28. ID                             : 2
  29. Format                         : AAC LC
  30. Format/Info                    : Advanced Audio Codec Low Complexity
  31. Codec ID                       : A_AAC-2
  32. Duration                       : 1 h 33 min
  33. Bit rate                       : 125 kb/s
  34. Channel(s)                     : 2 channels
  35. Channel layout                 : L R
  36. Sampling rate                  : 44.1 kHz
  37. Frame rate                     : 43.066 FPS (1024 SPF)
  38. Compression mode               : Lossy
  39. Stream size                    : 82.9 MiB (2%)
  40. Title                          : 国语
  41. Language                       : Chinese
  42. Default                        : Yes
  43. Forced                         : No

  44. Audio #2
  45. ID                             : 3
  46. Format                         : AAC LC
  47. Format/Info                    : Advanced Audio Codec Low Complexity
  48. Codec ID                       : A_AAC-2
  49. Duration                       : 1 h 33 min
  50. Bit rate                       : 125 kb/s
  51. Channel(s)                     : 2 channels
  52. Channel layout                 : L R
  53. Sampling rate                  : 44.1 kHz
  54. Frame rate                     : 43.066 FPS (1024 SPF)
  55. Compression mode               : Lossy
  56. Stream size                    : 83.2 MiB (2%)
  57. Title                          : 粤语
  58. Language                       : Chinese
  59. Default                        : No
  60. Forced                         : No

  61. Text #1
  62. ID                             : 4
  63. Format                         : ASS
  64. Codec ID                       : S_TEXT/ASS
  65. Codec ID/Info                  : Advanced Sub Station Alpha
  66. Duration                       : 1 h 31 min
  67. Bit rate                       : 124 b/s
  68. Count of elements              : 1163
  69. Compression mode               : Lossless
  70. Stream size                    : 84.2 KiB (0%)
  71. Title                          : 简体中文
  72. Language                       : Chinese
  73. Default                        : Yes
  74. Forced                         : No

  75. Text #2
  76. ID                             : 5
  77. Format                         : ASS
  78. Codec ID                       : S_TEXT/ASS
  79. Codec ID/Info                  : Advanced Sub Station Alpha
  80. Duration                       : 1 h 31 min
  81. Bit rate                       : 124 b/s
  82. Count of elements              : 1163
  83. Compression mode               : Lossless
  84. Stream size                    : 84.2 KiB (0%)
  85. Title                          : 繁体中文
  86. Language                       : Chinese
  87. Default                        : No
  88. Forced                         : No

复制代码



点击进入百度网盘下载(←购买前请先验证分享链接是否有效)



此处内容付费可见

此处内容需要向楼主支付盘币或购买VIP才能显示 已有 64 人购买 

支付 12 盘币 升级VIP


该资源其他网盘分享渠道→点此了解功能详情

使用115网盘下载(来自 至尊宝c 的分享,下载需要单独支付 12 盘币)

免责申明 - 论坛版权1、本站所有资源均来自会员分享或网络收集整理,仅供会员交流学习,禁用商业用途或盈利,下载后请在24小时之内删除;
2、本站(www.pan6.com)支持正版,本资源版权归版权方所有,观看或阅读请到相应机构购买正版资源;
3、本站资源均来源于网络,本站不参与录制、上传,如本帖侵犯到任何版权问题,请立即告知本站(admin#pan6.com(#=@)),本站将及时予与删除并致以最深的歉意;
楼主热贴推荐
华语电影爱好者
BT资源无法下载:戳这里,不会发帖、金币相关等新手问题:戳这里
回复

拉黑 使用道具 举报

为保留有用回复信息,此处有 64 个购买者的感谢留言已隐藏

主题
1
活跃值
6497
热心值
0
盘币
30
注册时间
2017-1-9
最后登录
2021-10-24
在线时间
99 小时

老会员勋章长期在线灌水之王

发表于 2021-10-10 08:26:26 | 显示全部楼层
喜剧片不错啊
回复

拉黑 使用道具 举报

主题
64
活跃值
3114
热心值
38
盘币
299
注册时间
2017-6-3
最后登录
2021-10-23
在线时间
484 小时
发表于 7 天前 | 显示全部楼层
楼主分享一下利智和钟楚红的婚外情吧
回复

拉黑 使用道具 举报

严禁灌水、讽刺、挖苦、辱骂分享者行为。回复前请详读:点击进入 理性回复,以免永久封禁。
您需要登录后才可以回帖 登录 | 加入论坛

本版积分规则

免责声明:本站所有资源均收集自互联网,没有提供影片资源存储,也未参与录制、上传。若本站收录的资源涉及您的版权或知识产权或其他利益,请附上版权证明邮件告知,在收到邮件后24小时内删除。

Copyright © 2012 [盘乐网] 管理员邮箱:admin#pan6.com(#=@)

站长信箱|sitemap|手机版|小黑屋|百度统计|盘乐网 ( 粤ICP备18120611号 )

快速回复 返回顶部 返回列表