盘乐网

 找回密码
 加入论坛
提示:多个关键词中间加空格 例如:天龙八部 星河
楼主: 至尊宝c

[WEB-DL] [中国香港][1997][恐怖鸡][吴倩莲/黎耀祥/陈豪][恐怖][国粤语简繁软中字][1080P][MKV/3.82G][超清修复无水印] 含百度网盘 含115网盘

  [复制链接]

主题
2960
活跃值
20687
热心值
2407
盘币
437494
注册时间
2018-4-7
最后登录
2021-12-4
在线时间
1697 小时

长期在线阳光心情老会员勋章鼎力支持我是土豪优秀会员普通精华热心人士爱心满满灌水之王荣誉会员资源组成员动漫达人夜猫子

发表于 2021-11-4 15:23:27 | 显示全部楼层 |阅读模式
请尊重分享者,本资源仅限交流未经楼主同意严禁转载或盈利,违者封号处理!
cover_gaitubao_455x637.jpg

◎译  名 恐怖鸡 / 恐布鸡 / Intruder
◎片  名 恐怖雞
◎年  代 1997
◎产  地 中国香港
◎类  别 惊悚 / 恐怖 / 犯罪
◎语  言 汉语普通话/粤语
◎上映日期 1997-11-29
◎IMDb评星  ★★★★★★✦☆☆☆
◎IMDb评分  6.4/10 from 335 users
◎IMDb链接  https://www.imdb.com/title/tt0184649/
◎豆瓣评星 ★★★✦☆
◎豆瓣评分 7.4/10 from 15,700 users
◎豆瓣链接 https://movie.douban.com/subject/1472532/
◎片  长 87 分钟
◎导  演 曾瑾昌 / Kan-Cheung Tsang
◎演  员 吴倩莲 / Chien-lien Wu
      黎耀祥 / Wayne Lai
      陈豪 / Moses Chan
      元彬 / Bun Yuen
      黄文慧 / Man-Wai Wong | 饰 陈母
      王文駿 / Man-Chun Wong
◎编  剧 曾瑾昌 / Kan-Cheung Tsang
◎制  片  人 韦家辉 / Ka-Fai Wai
      杜琪峰 / Johnnie To
◎音  乐 黄嘉倩 / Cacine Wong
◎摄  影 郑兆强 / Siu-keung Cheng
◎美  术 张世宏 / Silver Cheung
      李健威 / Kin-wai Lee

◎标  签 香港 | 惊悚 | 恐怖 | 犯罪 | 吴倩莲 | 银河映像 | 香港电影 | 1997

◎简  介 

  某雨夜,深圳一名妓女斯琴爱儿被女通缉犯叶小雁(吴倩莲 饰)狠狠的勒死了,小雁为的是得到斯琴爱儿的身份。小雁乔装成爱儿的样子,顺利通过了海关到达了香港,报失了身份证后,小雁成功取得了爱儿的身份。爱儿本身有个香港老公才得到了香港居民的身份,此时爱儿的老公也在苦苦等候妻子抵步。
  小雁选中了嫖客陈启明(黎耀祥 饰),启明是个计程车司机,离异后把女儿交给母亲抚养很少过问。小雁首先把启明撞成残废,然后潜入了他的家中把他禁锢,详细询问了他的身世。怎料启明的母亲前往探望儿子,凶狠的小雁为了计划,把启明的母亲杀害了,更骗走了启明的女儿。
  在小雁领取身份证当天,爱儿的丈夫发现了小雁的嫌疑,一直跟踪她至启明的家中。打斗中小雁的丈夫(陈豪 饰)出现了,原来他们夫妇俩同时通缉犯,并要得到启明的身份与他的双手……

◎幕后揭秘

  这是编剧曾谨昌首次执导,从整体上看,可以看出导演的水平不低,故事讲得奇情百出,生动曲折。原名叫《小心女人》,仍是杜淇峰、韦家辉悲观主义的体现,讲的是对港人身份被大陆人取代的恐惧。片中的冷血残酷心理变态场景则是《危情十日》(Misery,1990)和《八仙饭店之人肉叉烧包》的混合。绑架凶杀拍得冷静细致,但是优点往往也构成了陷阱,本片中的虐待、血腥场景令人发指,对大陆的恐惧心理(也就是影片画面后面的潜台词和集体无意识)更是令人心寒。


◎截    图
恐怖鸡.1997.WEB-DL.Intruder.2Audio.@至尊宝.mkv_20211104_143356.123.jpg 恐怖鸡.1997.WEB-DL.Intruder.2Audio.@至尊宝.mkv_20211104_143352.019.jpg 恐怖鸡.1997.WEB-DL.Intruder.2Audio.@至尊宝.mkv_20211104_143533.598.jpg 恐怖鸡.1997.WEB-DL.Intruder.2Audio.@至尊宝.mkv_20211104_143423.986.jpg

恐怖鸡.1997.WEB-DL.Intruder.2Audio.@至尊宝.mkv.jpg

  1. Video
  2. ID                             : 1
  3. Format                         : AVC
  4. Format/Info                    : Advanced Video Codec
  5. Format profile                 : High@L4.1
  6. Format settings                : CABAC / 3 Ref Frames
  7. Format settings, CABAC         : Yes
  8. Format settings, Reference fra : 3 frames
  9. Codec ID                       : V_MPEG4/ISO/AVC
  10. Duration                       : 1 h 27 min
  11. Bit rate                       : 5 984 kb/s
  12. Width                          : 1 920 pixels
  13. Height                         : 1 040 pixels
  14. Display aspect ratio           : 1.85:1
  15. Frame rate mode                : Constant
  16. Frame rate                     : 24.000 FPS
  17. Color space                    : YUV
  18. Chroma subsampling             : 4:2:0
  19. Bit depth                      : 8 bits
  20. Scan type                      : Progressive
  21. Bits/(Pixel*Frame)             : 0.125
  22. Stream size                    : 3.65 GiB (96%)
  23. Title                          : @至尊宝
  24. Language                       : Chinese
  25. Default                        : Yes
  26. Forced                         : No

  27. Audio #1
  28. ID                             : 2
  29. Format                         : AAC LC
  30. Format/Info                    : Advanced Audio Codec Low Complexity
  31. Codec ID                       : A_AAC-2
  32. Duration                       : 1 h 27 min
  33. Bit rate                       : 125 kb/s
  34. Channel(s)                     : 2 channels
  35. Channel layout                 : L R
  36. Sampling rate                  : 44.1 kHz
  37. Frame rate                     : 43.066 FPS (1024 SPF)
  38. Compression mode               : Lossy
  39. Stream size                    : 77.8 MiB (2%)
  40. Title                          : 国语
  41. Language                       : Chinese
  42. Default                        : Yes
  43. Forced                         : No

  44. Audio #2
  45. ID                             : 3
  46. Format                         : AAC LC
  47. Format/Info                    : Advanced Audio Codec Low Complexity
  48. Codec ID                       : A_AAC-2
  49. Duration                       : 1 h 27 min
  50. Bit rate                       : 125 kb/s
  51. Channel(s)                     : 2 channels
  52. Channel layout                 : L R
  53. Sampling rate                  : 44.1 kHz
  54. Frame rate                     : 43.066 FPS (1024 SPF)
  55. Compression mode               : Lossy
  56. Stream size                    : 78.1 MiB (2%)
  57. Title                          : 粤语
  58. Language                       : Chinese
  59. Default                        : No
  60. Forced                         : No

  61. Text #1
  62. ID                             : 4
  63. Format                         : ASS
  64. Codec ID                       : S_TEXT/ASS
  65. Codec ID/Info                  : Advanced Sub Station Alpha
  66. Duration                       : 1 h 24 min
  67. Bit rate                       : 71 b/s
  68. Count of elements              : 607
  69. Compression mode               : Lossless
  70. Stream size                    : 44.5 KiB (0%)
  71. Title                          : 简体中文
  72. Language                       : Chinese
  73. Default                        : Yes
  74. Forced                         : No

  75. Text #2
  76. ID                             : 5
  77. Format                         : ASS
  78. Codec ID                       : S_TEXT/ASS
  79. Codec ID/Info                  : Advanced Sub Station Alpha
  80. Duration                       : 1 h 24 min
  81. Bit rate                       : 71 b/s
  82. Count of elements              : 607
  83. Compression mode               : Lossless
  84. Stream size                    : 44.5 KiB (0%)
  85. Title                          : 繁体中文
  86. Language                       : Chinese
  87. Default                        : No
  88. Forced                         : No

  89. Menu
  90. 00:00:00.000                   : en:第 01 章
  91. 00:05:50.083                   : en:第 02 章
  92. 00:12:22.416                   : en:第 03 章
  93. 00:21:01.041                   : en:第 04 章
  94. 00:30:21.041                   : en:第 05 章
  95. 00:42:55.333                   : en:第 06 章
  96. 00:51:59.166                   : en:第 07 章
  97. 00:56:15.916                   : en:第 08 章
  98. 01:04:06.708                   : en:第 09 章
  99. 01:13:55.250                   : en:第 10 章
  100. 01:22:41.458                   : en:第 11 章
  101. 01:30:59.083                   : en:第 12 章

复制代码




点击进入百度网盘下载(←购买前请先验证分享链接是否有效)



此处内容付费可见

此处内容需要向楼主支付盘币或购买VIP才能显示 已有 71 人购买 

支付 5 盘币 升级VIP


该资源其他网盘分享渠道→点此了解功能详情

使用115网盘下载(来自 至尊宝c 的分享,下载需要单独支付 5 盘币)

免责申明 - 论坛版权1、本站所有资源均来自会员分享或网络收集整理,仅供会员交流学习,禁用商业用途或盈利,下载后请在24小时之内删除;
2、本站(www.pan6.com)支持正版,本资源版权归版权方所有,观看或阅读请到相应机构购买正版资源;
3、本站资源均来源于网络,本站不参与录制、上传,如本帖侵犯到任何版权问题,请立即告知本站(admin#pan6.com(#=@)),本站将及时予与删除并致以最深的歉意;
楼主热贴推荐
华语影视爱好者
BT资源无法下载:戳这里,不会发帖、金币相关等新手问题:戳这里
回复

拉黑 使用道具 举报

为保留有用回复信息,此处有 71 个购买者的感谢留言已隐藏

主题
306
活跃值
5131
热心值
96
盘币
8654
注册时间
2016-12-25
最后登录
2021-12-3
在线时间
2372 小时

阳光心情长期在线老会员勋章普通精华爱心满满鼎力支持优秀会员灌水之王热心人士动漫达人

发表于 2021-11-4 16:19:28 来自手机 | 显示全部楼层
这个剧可以,童年阴影
回复

拉黑 使用道具 举报

主题
3
活跃值
682
热心值
0
盘币
2453
注册时间
2017-8-2
最后登录
2021-12-1
在线时间
228 小时
发表于 2021-11-4 16:50:23 来自手机 | 显示全部楼层
这剧有一点血腥,不过剧情不错。
回复

拉黑 使用道具 举报

主题
17
活跃值
3910
热心值
1
盘币
3444
注册时间
2018-7-28
最后登录
2021-12-3
在线时间
507 小时
发表于 2021-11-4 16:57:02 | 显示全部楼层
这个电影还可以看下的
回复

拉黑 使用道具 举报

主题
0
活跃值
6726
热心值
0
盘币
1161
注册时间
2017-10-21
最后登录
2021-12-3
在线时间
92 小时
发表于 2021-11-5 00:16:08 | 显示全部楼层
期待楼主带给大家更多精品!
回复

拉黑 使用道具 举报

主题
0
活跃值
1922
热心值
0
盘币
585
注册时间
2018-3-9
最后登录
2021-12-3
在线时间
16 小时
发表于 2021-11-5 05:48:01 | 显示全部楼层
这个是好东西 感谢楼主分享了先
回复

拉黑 使用道具 举报

主题
4
活跃值
1263
热心值
1
盘币
9
注册时间
2016-4-27
最后登录
1970-1-1
在线时间
79 小时
发表于 2021-11-5 06:02:53 | 显示全部楼层
这部终于等到好版本了。支持楼主。
回复

拉黑 使用道具 举报

主题
0
活跃值
3230
热心值
0
盘币
760
注册时间
2018-9-13
最后登录
2021-12-3
在线时间
304 小时
发表于 2021-11-5 14:36:31 | 显示全部楼层
不错的东东,值得一看!
回复

拉黑 使用道具 举报

主题
1
活跃值
2135
热心值
-4
盘币
687
注册时间
2018-4-28
最后登录
2021-12-3
在线时间
371 小时
发表于 2021-11-6 11:11:16 | 显示全部楼层
很不错的片子,有点小恐怖,吴倩莲居然演了一个这样的角色,还演得很好。感谢楼主分享!
回复

拉黑 使用道具 举报

主题
0
活跃值
772
热心值
0
盘币
338
注册时间
2020-8-1
最后登录
2021-12-3
在线时间
98 小时
发表于 2021-11-7 23:37:13 来自手机 | 显示全部楼层
八戒就惨了
回复

拉黑 使用道具 举报

严禁灌水、讽刺、挖苦、辱骂分享者行为。回复前请详读:点击进入 理性回复,以免永久封禁。
您需要登录后才可以回帖 登录 | 加入论坛

本版积分规则

免责声明:本站所有资源均收集自互联网,没有提供影片资源存储,也未参与录制、上传。若本站收录的资源涉及您的版权或知识产权或其他利益,请附上版权证明邮件告知,在收到邮件后24小时内删除。

Copyright © 2012 [盘乐网] 管理员邮箱:admin#pan6.com(#=@)

站长信箱|sitemap|手机版|小黑屋|百度统计|盘乐网 ( 粤ICP备18120611号 )

快速回复 返回顶部 返回列表