盘乐网

 找回密码
 加入论坛
提示:多个关键词中间加空格 例如:天龙八部 星河
查看: 584|回复: 42

[喜剧] [中国内地][2000][幸福时光][董洁/赵本山/傅彪][国语简繁软中字][DVDRip][MKV/1.77G][无水印][广西电影制片厂] 含百度网盘 含115网盘

[复制链接]

主题
3180
活跃值
21621
热心值
2599
盘币
377665
注册时间
2018-4-7
最后登录
2022-1-19
在线时间
1796 小时

长期在线阳光心情老会员勋章鼎力支持我是土豪优秀会员普通精华热心人士爱心满满灌水之王荣誉会员资源组成员动漫达人夜猫子

发表于 2021-11-10 16:34:52 | 显示全部楼层 |阅读模式
请尊重分享者,本资源仅限交流未经楼主同意严禁转载或盈利,违者封号处理!
cover_gaitubao_455x667.jpg

◎译  名 Happy Times
◎片  名 幸福时光
◎年  代 2000
◎产  地 中国内地
◎类  别 剧情 / 喜剧
◎语  言 汉语普通话
◎上映日期 2000-12-31(中国内地)
◎IMDb评星  ★★★★★★★✦☆☆
◎IMDb评分  7.3/10 from 3,995 users
◎IMDb链接  https://www.imdb.com/title/tt0303243/
◎豆瓣评星 ★★★✦☆
◎豆瓣评分 7.1/10 from 21,433 users
◎豆瓣链接 https://movie.douban.com/subject/1297743/
◎片  长 102分钟
◎导  演 张艺谋 / Yimou Zhang
◎演  员 董洁 / Jie Dong
      赵本山 / Benshan Zhao
      傅彪 / Biao Fu
      李雪健 / Xuejian Li
      董立范 / Lifan Dong
      牛犇 / Ben Niu
      张洪杰 / Hongjie Zhang
      孙红雷 / Honglei Sun
      陶虹 / Hong Tao
      范伟 / Wei Fan
      宫景华 / Jinghua Gong
◎编  剧 莫言 / Yan Mo
◎制  片  人 泰伦斯·马力克 / Terrence Malick
      王伟 / Wei Wang
      张伟平 / Weiping Zhang
      爱德华·R·普列斯曼 / Edward R. Pressman
◎音  乐 三宝 / Bao San
◎摄  影 白小妍 / Xiaoyan Bai
      侯咏 / Yong Hou
      亢晓天
◎剪  辑 翟茹 / Ru Zhai
◎美  术 曹久平 / Juiping Cao
◎服  装 佟华苗 / Huamiao Tong
◎副  导  演 谢东燊 / Dongshen Xie
◎音  效 林倩 / Qian Lin
      武拉拉 / Lala Wu
◎其  它 黄新明 / Xinming Huang

◎标  签 张艺谋 | 赵本山 | 董洁 | 中国电影 | 中国 | 剧情 | 大陆 | 2001

◎简  介 

  退休工人老赵(赵本山饰)相中了一个胖女人,令他尴尬的是,胖女人与他初次见面就提出要5万块钱作为婚礼的费用,老赵只能咬着牙答应了。徒弟小傅给他出了个主意,让他利用厂区后面的一个旧公共汽车车厢,使它成为那些恋爱男女约会的场所,并起名为“幸福时光小屋”。
  一天老赵到胖女人家见到胖女人前夫留下的盲女孩(董洁饰),胖女人嫌弃她,要老赵将盲女孩安排在“幸福时光小屋”工作。事有不巧,当老赵带盲女“上班”时,旧车厢已被吊在空中。胖女人家已没盲女的容身之地,老赵只好带盲女回家。为帮盲女恢复生活的信心,老赵和众工友将这个啼笑皆非却又感人的骗局小心翼翼地继续下去,一班退休同事假扮成前来按摩的顾客……

◎获奖情况 

  第2届华语电影传媒大奖 (2002)
  最佳女主角(提名) 董洁

◎幕后揭秘

  《幸福时光》是一部讲述中国人内心的感情戏,是导演张艺谋的首部贺岁作品,自然受到各方关注。片中老赵的幽默、盲女的纯真、徒弟小傅等人的善良,使影片充满着温情,也是该片最大的特色。该片在开拍时,“幸福少女选秀”的新闻引起了广泛关注,新一代“谋”女郎董洁也从这部电影开始为观众所熟悉。但是该片作为“贺岁片”并没有实现“贺岁片”的票房效果,观众对于影片所表现出的温情也持不同看法,并认为此片没有表现出张艺谋作品应有的深度,片中善良可爱的人们统统因为温情而变的温情,使影片最终陷入了道德伦理“因为善良,所以善良”自我循环状态。


◎截    图
幸福时光.2000.DVDRip.Happy Times.AC3.@至尊宝.mkv_20220112_141051.120.jpg 幸福时光.2000.DVDRip.Happy Times.AC3.@至尊宝.mkv_20220112_141008.590.jpg 幸福时光.2000.DVDRip.Happy Times.AC3.@至尊宝.mkv_20220112_141035.150.jpg

幸福时光.2000.DVDRip.Happy Times.AC3.@至尊宝.mkv.jpg

  1. Video
  2. ID                             : 1
  3. Format                         : AVC
  4. Format/Info                    : Advanced Video Codec
  5. Format profile                 : High@L4.1
  6. Format settings                : CABAC / 1 Ref Frames
  7. Format settings, CABAC         : Yes
  8. Format settings, Reference fra : 1 frame
  9. Format settings, GOP           : M=3, N=25
  10. Codec ID                       : V_MPEG4/ISO/AVC
  11. Duration                       : 1 h 32 min
  12. Bit rate mode                  : Variable
  13. Bit rate                       : 2 252 kb/s
  14. Maximum bit rate               : 3 299 kb/s
  15. Width                          : 708 pixels
  16. Height                         : 554 pixels
  17. Display aspect ratio           : 16:9
  18. Frame rate mode                : Constant
  19. Frame rate                     : 25.000 FPS
  20. Color space                    : YUV
  21. Chroma subsampling             : 4:2:0
  22. Bit depth                      : 8 bits
  23. Scan type                      : Progressive
  24. Bits/(Pixel*Frame)             : 0.230
  25. Stream size                    : 1.46 GiB (83%)
  26. Title                          : @至尊宝
  27. Default                        : Yes
  28. Forced                         : No
  29. Color range                    : Limited
  30. Color primaries                : BT.601 PAL
  31. Transfer characteristics       : BT.709
  32. Matrix coefficients            : BT.601

  33. Audio
  34. ID                             : 2
  35. Format                         : AC-3
  36. Format/Info                    : Audio Coding 3
  37. Commercial name                : Dolby Digital
  38. Codec ID                       : A_AC3
  39. Duration                       : 1 h 32 min
  40. Bit rate mode                  : Constant
  41. Bit rate                       : 448 kb/s
  42. Channel(s)                     : 6 channels
  43. Channel layout                 : L R C LFE Ls Rs
  44. Sampling rate                  : 48.0 kHz
  45. Frame rate                     : 31.250 FPS (1536 SPF)
  46. Compression mode               : Lossy
  47. Stream size                    : 298 MiB (16%)
  48. Language                       : Chinese
  49. Service kind                   : Complete Main
  50. Default                        : Yes
  51. Forced                         : No

  52. Text #1
  53. ID                             : 3
  54. Format                         : ASS
  55. Codec ID                       : S_TEXT/ASS
  56. Codec ID/Info                  : Advanced Sub Station Alpha
  57. Duration                       : 1 h 29 min
  58. Bit rate                       : 197 b/s
  59. Count of elements              : 1823
  60. Compression mode               : Lossless
  61. Stream size                    : 129 KiB (0%)
  62. Title                          : 简体中文ASS
  63. Language                       : Chinese
  64. Default                        : Yes
  65. Forced                         : No

  66. Text #2
  67. ID                             : 4
  68. Format                         : ASS
  69. Codec ID                       : S_TEXT/ASS
  70. Codec ID/Info                  : Advanced Sub Station Alpha
  71. Duration                       : 1 h 29 min
  72. Bit rate                       : 197 b/s
  73. Count of elements              : 1823
  74. Compression mode               : Lossless
  75. Stream size                    : 129 KiB (0%)
  76. Title                          : 繁体中文ASS
  77. Language                       : Chinese
  78. Default                        : No
  79. Forced                         : No

  80. Text #3
  81. ID                             : 5
  82. Format                         : UTF-8
  83. Codec ID                       : S_TEXT/UTF8
  84. Codec ID/Info                  : UTF-8 Plain Text
  85. Duration                       : 1 h 29 min
  86. Bit rate                       : 65 b/s
  87. Count of elements              : 1823
  88. Stream size                    : 42.8 KiB (0%)
  89. Title                          : 简体中文SRT
  90. Language                       : Chinese
  91. Default                        : No
  92. Forced                         : No

  93. Text #4
  94. ID                             : 6
  95. Format                         : UTF-8
  96. Codec ID                       : S_TEXT/UTF8
  97. Codec ID/Info                  : UTF-8 Plain Text
  98. Duration                       : 1 h 29 min
  99. Bit rate                       : 65 b/s
  100. Count of elements              : 1823
  101. Stream size                    : 42.8 KiB (0%)
  102. Title                          : 繁体中文SRT
  103. Language                       : Chinese
  104. Default                        : No
  105. Forced                         : No

  106. Menu
  107. 00:00:00.080                   : en:Chapter 01
  108. 00:05:24.800                   : en:Chapter 02
  109. 00:09:54.280                   : en:Chapter 03
  110. 00:16:48.120                   : en:Chapter 04
  111. 00:20:51.040                   : en:Chapter 05
  112. 00:27:31.400                   : en:Chapter 06
  113. 00:33:19.600                   : en:Chapter 07
  114. 00:38:22.360                   : en:Chapter 08
  115. 00:44:04.600                   : en:Chapter 09
  116. 00:51:20.120                   : en:Chapter 10
  117. 00:57:35.400                   : en:Chapter 11
  118. 01:05:53.880                   : en:Chapter 12
  119. 01:16:06.680                   : en:Chapter 13
  120. 01:21:01.880                   : en:Chapter 14
  121. 01:25:21.120                   : en:Chapter 15

复制代码




点击进入百度网盘下载(←购买前请先验证分享链接是否有效)
  提取码:eq94



此处内容付费可见

此处内容需要向楼主支付盘币或购买VIP才能显示 已有 38 人购买 

支付 12 盘币 升级VIP


该资源其他网盘分享渠道→点此了解功能详情

使用115网盘下载(来自 至尊宝c 的分享,下载需要单独支付 12 盘币)

免责申明 - 论坛版权1、本站所有资源均来自会员分享或网络收集整理,仅供会员交流学习,禁用商业用途或盈利,下载后请在24小时之内删除;
2、本站(www.pan6.com)支持正版,本资源版权归版权方所有,观看或阅读请到相应机构购买正版资源;
3、本站资源均来源于网络,本站不参与录制、上传,如本帖侵犯到任何版权问题,请立即告知本站(admin#pan6.com(#=@)),本站将及时予与删除并致以最深的歉意;
楼主热贴推荐
华语影视爱好者
BT资源无法下载:戳这里,不会发帖、金币相关等新手问题:戳这里
回复

拉黑 使用道具 举报

为保留有用回复信息,此处有 38 个购买者的感谢留言已隐藏

主题
30
活跃值
1072
热心值
0
盘币
273
注册时间
2017-10-18
最后登录
2022-1-18
在线时间
823 小时
发表于 2021-11-10 19:25:33 来自手机 | 显示全部楼层
看起来不错
回复

拉黑 使用道具 举报

主题
205
活跃值
8174
热心值
224
盘币
5438
注册时间
2015-12-3
最后登录
2022-1-18
在线时间
1137 小时

长期在线阳光心情老会员勋章普通精华鼎力支持灌水之王热心人士爱心满满

发表于 2021-11-10 21:10:03 | 显示全部楼层
其实这个字幕我也做了       就是一直没做最终精校     哈哈
利来利往  熙熙攘攘
回复

拉黑 使用道具 举报

主题
3180
活跃值
21621
热心值
2599
盘币
377665
注册时间
2018-4-7
最后登录
2022-1-19
在线时间
1796 小时

长期在线阳光心情老会员勋章鼎力支持我是土豪优秀会员普通精华热心人士爱心满满灌水之王荣誉会员资源组成员动漫达人夜猫子

 楼主| 发表于 2021-11-10 22:19:58 | 显示全部楼层
illyd2013 发表于 2021-11-10 21:10
其实这个字幕我也做了       就是一直没做最终精校     哈哈

这个对白挺多的,做的累,还有些东北话的名词听不懂
华语影视爱好者
回复

拉黑 使用道具 举报

主题
205
活跃值
8174
热心值
224
盘币
5438
注册时间
2015-12-3
最后登录
2022-1-18
在线时间
1137 小时

长期在线阳光心情老会员勋章普通精华鼎力支持灌水之王热心人士爱心满满

发表于 2021-11-11 16:38:25 | 显示全部楼层
至尊宝c 发表于 2021-11-10 22:19
这个对白挺多的,做的累,还有些东北话的名词听不懂

反正太多基本不是正常语序那种的    回头有时间弄了跟你交流一下。
利来利往  熙熙攘攘
回复

拉黑 使用道具 举报

主题
0
活跃值
3202
热心值
0
盘币
54
注册时间
2017-12-31
最后登录
2022-1-18
在线时间
258 小时
发表于 2021-11-13 15:06:56 | 显示全部楼层
你好,55分钟左右开始花屏无法正常播放
回复

拉黑 使用道具 举报

主题
3180
活跃值
21621
热心值
2599
盘币
377665
注册时间
2018-4-7
最后登录
2022-1-19
在线时间
1796 小时

长期在线阳光心情老会员勋章鼎力支持我是土豪优秀会员普通精华热心人士爱心满满灌水之王荣誉会员资源组成员动漫达人夜猫子

 楼主| 发表于 2021-11-13 15:07:47 | 显示全部楼层
完美石头 发表于 2021-11-13 15:06
你好,55分钟左右开始花屏无法正常播放

正常的,你是不是115下载的
华语影视爱好者
回复

拉黑 使用道具 举报

主题
0
活跃值
3202
热心值
0
盘币
54
注册时间
2017-12-31
最后登录
2022-1-18
在线时间
258 小时
发表于 2021-11-16 09:33:05 | 显示全部楼层
至尊宝c 发表于 2021-11-13 15:07
正常的,你是不是115下载的

你好,百度网盘下载的
回复

拉黑 使用道具 举报

主题
3180
活跃值
21621
热心值
2599
盘币
377665
注册时间
2018-4-7
最后登录
2022-1-19
在线时间
1796 小时

长期在线阳光心情老会员勋章鼎力支持我是土豪优秀会员普通精华热心人士爱心满满灌水之王荣誉会员资源组成员动漫达人夜猫子

 楼主| 发表于 2021-11-16 09:38:07 | 显示全部楼层
完美石头 发表于 2021-11-16 09:33
你好,百度网盘下载的

我播放没有问题     
华语影视爱好者
回复

拉黑 使用道具 举报

严禁灌水、讽刺、挖苦、辱骂分享者行为。回复前请详读:点击进入 理性回复,以免永久封禁。
您需要登录后才可以回帖 登录 | 加入论坛

本版积分规则

免责声明:本站所有资源均收集自互联网,没有提供影片资源存储,也未参与录制、上传。若本站收录的资源涉及您的版权或知识产权或其他利益,请附上版权证明邮件告知,在收到邮件后24小时内删除。

Copyright © 2012 [盘乐网] 管理员邮箱:admin#pan6.com(#=@)

站长信箱|sitemap|手机版|小黑屋|百度统计|盘乐网 ( 粤ICP备18120611号 )

快速回复 返回顶部 返回列表