盘乐网

 找回密码
 加入论坛
提示:多个关键词中间加空格 例如:天龙八部 星河
查看: 961|回复: 73

[WEB-DL] [中国香港][1988][皇家师姐3:雌雄大盗][杨丽菁/吴耀汉/吴君如][动作][国粤语简繁软中字][1080P][MKV/3.8G][超清修复无水印] 含百度网盘 含115网盘

  [复制链接]

主题
2932
活跃值
20619
热心值
2394
盘币
431360
注册时间
2018-4-7
最后登录
2021-12-1
在线时间
1688 小时

长期在线阳光心情老会员勋章鼎力支持我是土豪优秀会员普通精华热心人士爱心满满灌水之王荣誉会员资源组成员动漫达人夜猫子

发表于 2021-11-15 09:24:30 | 显示全部楼层 |阅读模式
请尊重分享者,本资源仅限交流未经楼主同意严禁转载或盈利,违者封号处理!
cover_gaitubao_455x637.jpg

◎译  名 皇家师姐3:雌雄大盗 / 皇家师姐之III雌雄大盜 / 皇家警察任务系列之3雌雄大盗 / Yes Madam 2 / Force of the Dragon / In the Line of Duty III / In the Line of Duty - Part 3
◎片  名 皇家師姐III雌雄大盜
◎年  代 1988
◎产  地 中国香港
◎类  别 动作
◎语  言 汉语普通话/粤语
◎上映日期 1988-09-23(中国香港)
◎IMDb评星  ★★★★★★✦☆☆☆
◎IMDb评分  6.4/10 from 375 users
◎IMDb链接  https://www.imdb.com/title/tt0095337/
◎豆瓣评星 ★★★☆☆
◎豆瓣评分 6.2/10 from 801 users
◎豆瓣链接 https://movie.douban.com/subject/1854964/
◎片  长 82分钟
◎导  演 袁振洋 / Brandy Yuen
      黄岳泰 / Arthur Wong
◎演  员 杨丽菁 / Cynthia Khan
      吴耀汉 / Richard Ng
      吴君如 / Sandra Ng
      曾志伟 / Eric Tsang
      冯淬帆 / Stanley Fung
      黄锦燊 / Melvin Wong
      狄威 / Dick Wei
      翁世杰 / Sai-Kit Yung
      藤冈弘 / Hiroshi Fujioka
      西协美智子 / Michiko Nishiwaki
      岳华 / Hua Yueh
      秦沛 / Paul Chun
      袁若光 / Patrick Yuen Yeuk-Kwong
      仇云波 / Robin Shou
      马斯晨 / Season Ma
      李健生 / Chris Lee
◎编  剧 罗大文 / Tai-Man Law
      陈翘英 / Kiu-Ying Chan
      叶广俭 / Kwong Kim Yip
      袁若光 / Patrick Yuen Yeuk-Kwong
◎制  片  人 冼杞然 / Stephen Shin
      潘迪生 / Dickson Poon
◎音  乐 陈斐烈 / Fei Lit Chan
◎摄  影 关英全 / Ying-Chuan Kuan
◎剪  辑 郭廷鸿 / Ting Hung Kuo
◎美  术 黄岳泰 / Arthur Wong
◎副  导  演 萧伟强 / Kenneth Siu
◎动作特技 袁日初 / Yat Chor Yuen

◎标  签 动作 | 香港 | 杨丽菁 | 香港电影 | 警匪 | 吴君如 | 1988 | 雌雄大盗

◎简  介 

  日本珠宝商人山本(岳华 饰)在东京举行珠宝展览会期间遭到雌雄大盗中川和西协美智子的血腥洗劫,警官藤冈弘的助手在枪战中身亡。在此之后中川和西协赶赴香港,准备采购军火支持日本赤军的运动。
  得知消息的藤冈亦尾随来港,香港警方派出阿丽(杨丽菁 饰)接机,同期山本也抵达香港。藤冈埋怨香港警方办事不力,在酒吧中偶遇西协,引发枪战,造成数人死亡。被港警扣留准备遣返日本的藤冈设法逃出,追至山本住处,雌雄大盗尾随前来。双方发生新一轮的火拼……


◎截    图
皇家师姐3:雌雄大盗.1988.WEB-DL.In the Line of Duty III.2Audio.@至尊宝.mkv_20211.jpg 皇家师姐3:雌雄大盗.1988.WEB-DL.In the Line of Duty III.2Audio.@至尊宝.mkv_20211.jpg 皇家师姐3:雌雄大盗.1988.WEB-DL.In the Line of Duty III.2Audio.@至尊宝.mkv_20211.jpg 皇家师姐3:雌雄大盗.1988.WEB-DL.In the Line of Duty III.2Audio.@至尊宝.mkv_20211.jpg

皇家师姐3:雌雄大盗.1988.WEB-DL.In the Line of Duty III.2Audio.@至尊宝.mkv.jpg

  1. Video
  2. ID                             : 1
  3. Format                         : AVC
  4. Format/Info                    : Advanced Video Codec
  5. Format profile                 : High@L4.1
  6. Format settings                : CABAC / 3 Ref Frames
  7. Format settings, CABAC         : Yes
  8. Format settings, Reference fra : 3 frames
  9. Codec ID                       : V_MPEG4/ISO/AVC
  10. Duration                       : 1 h 24 min
  11. Bit rate                       : 6 148 kb/s
  12. Width                          : 1 920 pixels
  13. Height                         : 1 016 pixels
  14. Display aspect ratio           : 1.890
  15. Frame rate mode                : Constant
  16. Frame rate                     : 25.000 FPS
  17. Color space                    : YUV
  18. Chroma subsampling             : 4:2:0
  19. Bit depth                      : 8 bits
  20. Scan type                      : Progressive
  21. Bits/(Pixel*Frame)             : 0.126
  22. Stream size                    : 3.61 GiB (96%)
  23. Title                          : @至尊宝
  24. Language                       : Chinese
  25. Default                        : Yes
  26. Forced                         : No

  27. Audio #1
  28. ID                             : 2
  29. Format                         : AAC LC
  30. Format/Info                    : Advanced Audio Codec Low Complexity
  31. Codec ID                       : A_AAC-2
  32. Duration                       : 1 h 24 min
  33. Bit rate                       : 125 kb/s
  34. Channel(s)                     : 2 channels
  35. Channel layout                 : L R
  36. Sampling rate                  : 44.1 kHz
  37. Frame rate                     : 43.066 FPS (1024 SPF)
  38. Compression mode               : Lossy
  39. Stream size                    : 75.0 MiB (2%)
  40. Title                          : 国语
  41. Language                       : Chinese
  42. Default                        : Yes
  43. Forced                         : No

  44. Audio #2
  45. ID                             : 3
  46. Format                         : AAC LC
  47. Format/Info                    : Advanced Audio Codec Low Complexity
  48. Codec ID                       : A_AAC-2
  49. Duration                       : 1 h 24 min
  50. Bit rate                       : 125 kb/s
  51. Channel(s)                     : 2 channels
  52. Channel layout                 : L R
  53. Sampling rate                  : 44.1 kHz
  54. Frame rate                     : 43.066 FPS (1024 SPF)
  55. Compression mode               : Lossy
  56. Stream size                    : 75.0 MiB (2%)
  57. Title                          : 粤语
  58. Language                       : Chinese
  59. Default                        : No
  60. Forced                         : No

  61. Text #1
  62. ID                             : 4
  63. Format                         : ASS
  64. Codec ID                       : S_TEXT/ASS
  65. Codec ID/Info                  : Advanced Sub Station Alpha
  66. Duration                       : 1 h 21 min
  67. Bit rate                       : 93 b/s
  68. Count of elements              : 739
  69. Compression mode               : Lossless
  70. Stream size                    : 55.4 KiB (0%)
  71. Title                          : 简体中文ASS
  72. Language                       : Chinese
  73. Default                        : Yes
  74. Forced                         : No

  75. Text #2
  76. ID                             : 5
  77. Format                         : ASS
  78. Codec ID                       : S_TEXT/ASS
  79. Codec ID/Info                  : Advanced Sub Station Alpha
  80. Duration                       : 1 h 21 min
  81. Bit rate                       : 93 b/s
  82. Count of elements              : 739
  83. Compression mode               : Lossless
  84. Stream size                    : 55.4 KiB (0%)
  85. Title                          : 繁体中文ASS
  86. Language                       : Chinese
  87. Default                        : No
  88. Forced                         : No

  89. Text #3
  90. ID                             : 6
  91. Format                         : UTF-8
  92. Codec ID                       : S_TEXT/UTF8
  93. Codec ID/Info                  : UTF-8 Plain Text
  94. Duration                       : 1 h 21 min
  95. Bit rate                       : 35 b/s
  96. Count of elements              : 739
  97. Stream size                    : 20.8 KiB (0%)
  98. Title                          : 简体中文SRT
  99. Language                       : Chinese
  100. Default                        : No
  101. Forced                         : No

  102. Text #4
  103. ID                             : 7
  104. Format                         : UTF-8
  105. Codec ID                       : S_TEXT/UTF8
  106. Codec ID/Info                  : UTF-8 Plain Text
  107. Duration                       : 1 h 21 min
  108. Bit rate                       : 35 b/s
  109. Count of elements              : 739
  110. Stream size                    : 20.8 KiB (0%)
  111. Title                          : 繁体中文SRT
  112. Language                       : Chinese
  113. Default                        : No
  114. Forced                         : No

  115. Menu
  116. 00:00:00.000                   : en:第 01 章
  117. 00:05:50.083                   : en:第 02 章
  118. 00:12:22.416                   : en:第 03 章
  119. 00:21:01.041                   : en:第 04 章
  120. 00:30:21.041                   : en:第 05 章
  121. 00:42:55.333                   : en:第 06 章
  122. 00:51:59.166                   : en:第 07 章
  123. 00:56:15.916                   : en:第 08 章
  124. 01:04:06.708                   : en:第 09 章
  125. 01:13:55.250                   : en:第 10 章
  126. 01:22:41.458                   : en:第 11 章
  127. 01:30:59.083                   : en:第 12 章

复制代码




点击进入百度网盘下载(←购买前请先验证分享链接是否有效)



此处内容付费可见

此处内容需要向楼主支付盘币或购买VIP才能显示 已有 61 人购买 

支付 12 盘币 升级VIP


该资源其他网盘分享渠道→点此了解功能详情

使用115网盘下载(来自 至尊宝c 的分享,下载需要单独支付 12 盘币)

免责申明 - 论坛版权1、本站所有资源均来自会员分享或网络收集整理,仅供会员交流学习,禁用商业用途或盈利,下载后请在24小时之内删除;
2、本站(www.pan6.com)支持正版,本资源版权归版权方所有,观看或阅读请到相应机构购买正版资源;
3、本站资源均来源于网络,本站不参与录制、上传,如本帖侵犯到任何版权问题,请立即告知本站(admin#pan6.com(#=@)),本站将及时予与删除并致以最深的歉意;

点赞

参与人数 2热心值 +2

谢谢@Thanks! + 1

资源给力! + 1

查看点赞详情

楼主热贴推荐
华语影视爱好者
BT资源无法下载:戳这里,不会发帖、金币相关等新手问题:戳这里
回复

拉黑 使用道具 举报

为保留有用回复信息,此处有 61 个购买者的感谢留言已隐藏

主题
1
活跃值
2831
热心值
3
盘币
620
注册时间
2018-1-11
最后登录
2021-12-1
在线时间
27 小时
发表于 2021-11-15 09:39:12 | 显示全部楼层
感谢分享。。。。。。。。。。
回复

拉黑 使用道具 举报

主题
57
活跃值
1483
热心值
23
盘币
1620
注册时间
2018-11-11
最后登录
2021-11-29
在线时间
264 小时

长期在线老会员勋章爱心满满普通精华

发表于 2021-11-15 10:29:21 | 显示全部楼层
楼主威武!
亡羊已补牢。
回复

拉黑 使用道具 举报

主题
57
活跃值
1483
热心值
23
盘币
1620
注册时间
2018-11-11
最后登录
2021-11-29
在线时间
264 小时

长期在线老会员勋章爱心满满普通精华

发表于 2021-11-15 10:36:30 | 显示全部楼层
楼主可以修复下面几部电影吗:[香港][1992][92霸王花与霸王花] ;[中国香港][1987][ 天使行动1];[香港][1988][ 天使行动2:火凤狂龙 ]; [中国香港][1989][ 天使行动3:魔女末日 ]
亡羊已补牢。
回复

拉黑 使用道具 举报

主题
65
活跃值
3114
热心值
38
盘币
185
注册时间
2017-6-3
最后登录
2021-12-1
在线时间
497 小时
发表于 2021-11-15 16:28:12 | 显示全部楼层
26778518872 发表于 2021-11-15 10:36
楼主可以修复下面几部电影吗:[香港][1992][92霸王花与霸王花] ;[中国香港][1987][ 天使行动1];[香港][19 ...

天使行动楼主发过了,不过是硬字幕

点评

我刚刚查了一下,楼主现在的技术更好了,很少发2160P的了。  发表于 2021-11-16 12:51
[百度云+115][中国香港][1987-1989][天使行动/三部曲][方中信/李赛凤/姜大卫][犯罪][国粤语简硬中字][2160P][MKV/总大小9.86G][超清修复无水印  发表于 2021-11-16 12:51
回复

拉黑 使用道具 举报

主题
1
活跃值
6575
热心值
0
盘币
5
注册时间
2017-1-9
最后登录
2021-12-1
在线时间
103 小时

老会员勋章长期在线灌水之王

发表于 2021-11-15 18:15:40 | 显示全部楼层
这个还不错啊
回复

拉黑 使用道具 举报

主题
0
活跃值
1917
热心值
0
盘币
583
注册时间
2018-3-9
最后登录
2021-11-29
在线时间
16 小时
发表于 2021-11-16 01:18:14 | 显示全部楼层
好东西 感谢楼主的分享了先
回复

拉黑 使用道具 举报

主题
0
活跃值
3674
热心值
0
盘币
1275
注册时间
2018-4-6
最后登录
2021-12-1
在线时间
85 小时

老会员勋章长期在线灌水之王

发表于 2021-11-16 01:25:52 | 显示全部楼层
谢谢分享
回复

拉黑 使用道具 举报

主题
196
活跃值
6335
热心值
56
盘币
5069
注册时间
2017-10-12
最后登录
2021-11-30
在线时间
217 小时

阳光心情老会员勋章长期在线

发表于 2021-11-16 06:23:00 | 显示全部楼层
欣赏唯美的电影,感悟内容的精彩!
回复

拉黑 使用道具 举报

主题
1
活跃值
5929
热心值
0
盘币
2282
注册时间
2016-5-27
最后登录
2021-12-1
在线时间
174 小时
发表于 2021-11-16 08:45:49 | 显示全部楼层
看西协美智子
回复

拉黑 使用道具 举报

主题
23
活跃值
580
热心值
4
盘币
137
注册时间
2019-10-13
最后登录
2021-12-1
在线时间
302 小时
发表于 2021-11-16 17:57:14 来自手机 | 显示全部楼层
太感谢了,就缺3.5高清版。
回复

拉黑 使用道具 举报

主题
0
活跃值
257
热心值
0
盘币
39
注册时间
2018-4-15
最后登录
2021-12-1
在线时间
88 小时
发表于 2021-11-20 10:51:51 | 显示全部楼层
此片有内容啊
当年一部接一部的 现在怀旧一下
回复

拉黑 使用道具 举报

主题
0
活跃值
95
热心值
0
盘币
18
注册时间
2020-3-28
最后登录
2021-12-1
在线时间
10 小时
发表于 10 小时前 | 显示全部楼层
感谢分享,生活因分享而精彩。
回复

拉黑 使用道具 举报

严禁灌水、讽刺、挖苦、辱骂分享者行为。回复前请详读:点击进入 理性回复,以免永久封禁。
您需要登录后才可以回帖 登录 | 加入论坛

本版积分规则

免责声明:本站所有资源均收集自互联网,没有提供影片资源存储,也未参与录制、上传。若本站收录的资源涉及您的版权或知识产权或其他利益,请附上版权证明邮件告知,在收到邮件后24小时内删除。

Copyright © 2012 [盘乐网] 管理员邮箱:admin#pan6.com(#=@)

站长信箱|sitemap|手机版|小黑屋|百度统计|盘乐网 ( 粤ICP备18120611号 )

快速回复 返回顶部 返回列表