盘乐网

 找回密码
 加入论坛
提示:多个关键词中间加空格 例如:天龙八部 星河
查看: 795|回复: 63

[WEB-DL] [中国香港][1990][皇家师姐5中间人][杨丽菁/吴大维/江欣燕][动作][国粤语简繁软中字][1080P][MKV/3.8G][超清修复无水印] 含百度网盘 含115网盘

  [复制链接]

主题
2932
活跃值
20619
热心值
2394
盘币
431187
注册时间
2018-4-7
最后登录
2021-12-1
在线时间
1688 小时

长期在线阳光心情老会员勋章鼎力支持我是土豪优秀会员普通精华热心人士爱心满满灌水之王荣誉会员资源组成员动漫达人夜猫子

发表于 2021-11-15 09:33:39 | 显示全部楼层 |阅读模式
请尊重分享者,本资源仅限交流未经楼主同意严禁转载或盈利,违者封号处理!
cover_gaitubao_455x637.jpg

◎译  名 皇家师姐5中间人 / 小虾米对响尾蛇 / 皇家师姐之中间人 / 皇家师姐:中间人 / In the Line of Duty 5: Middle Man / Middle Man
◎片  名 皇家師姐5中間人
◎年  代 1990
◎产  地 中国香港
◎类  别 动作
◎语  言 汉语普通话/粤语
◎上映日期 1990-06-15(中国香港)
◎IMDb评星  ★★★★★✦☆☆☆☆
◎IMDb评分  5.6/10 from 208 users
◎IMDb链接  https://www.imdb.com/title/tt0094376/
◎豆瓣评星 ★★★☆☆
◎豆瓣评分 5.8/10 from 491 users
◎豆瓣链接 https://movie.douban.com/subject/2362260/
◎片  长 Germany: 100 分钟 / Australia: 90 分钟 / Hong Kong: 94 分钟
◎导  演 查传谊 / Chuen-Yee Cha
◎演  员 罗烈 / Lieh Lo
      顾冠忠 / Kuan-chung Ku
      吕颂贤 / Jackie Lui Chung-yin
      权成荣 / Kwon Sung-Young
      任达华 / Simon Yam
      文森特·林 / Vincent Lyn
      刘江 / Kong Lau
      杨丽菁 / Cynthia Khan
      金佩恩 / Kim Penn
      王伟 / Wai Wong
      沈威 / Wai Shum
      查传谊 / Chuen-Yee Cha
      江欣燕 / Elvina Kong
      周比利 / Billy Chow
      吴大维 / David Wu
      布鲁斯·方丹 / Bruce Fontaine | 饰 Hit Man
◎摄  影 郑兆强 / Siu-keung Cheng
◎副  导  演 许月珍 / Jojo Hui Yuet-chun

◎标  签 动作 | 香港 | 杨丽菁 | 香港电影 | 警匪 | 吴大维 | 犯罪 | 1990

◎简  介 

  当红主持吴大维扮演一位正直的美籍华人海军,样貌和身材都甚具说服力。真一贩卖美国情报的组织,其成员凡是暴露身份者均遭杀害。亚伦是其组织成员之一,他与大维同在美国海军陆战队复役,只因亚伦遇劫身亡。与他有过接触的人全被追杀,大维不甘被陷害,突围而出找到在警局任职的表姐,他们结伴而行前往韩国直捣虎穴,与“上将”正面决斗。


◎截    图
皇家师姐5中间人.1990.WEB-DL.In the Line of Duty 5 Middle Man.2Audio.@至尊宝.mkv_.jpg 皇家师姐5中间人.1990.WEB-DL.In the Line of Duty 5 Middle Man.2Audio.@至尊宝.mkv_.jpg 皇家师姐5中间人.1990.WEB-DL.In the Line of Duty 5 Middle Man.2Audio.@至尊宝.mkv_.jpg 皇家师姐5中间人.1990.WEB-DL.In the Line of Duty 5 Middle Man.2Audio.@至尊宝.mkv_.jpg

皇家师姐5中间人.1990.WEB-DL.In the Line of Duty 5 Middle Man.2Audio.@至尊宝.mkv..jpg

  1. Video
  2. ID                             : 1
  3. Format                         : AVC
  4. Format/Info                    : Advanced Video Codec
  5. Format profile                 : High@L4.1
  6. Format settings                : CABAC / 3 Ref Frames
  7. Format settings, CABAC         : Yes
  8. Format settings, Reference fra : 3 frames
  9. Codec ID                       : V_MPEG4/ISO/AVC
  10. Duration                       : 1 h 29 min
  11. Bit rate                       : 5 802 kb/s
  12. Width                          : 1 920 pixels
  13. Height                         : 1 080 pixels
  14. Display aspect ratio           : 16:9
  15. Frame rate mode                : Constant
  16. Frame rate                     : 25.000 FPS
  17. Color space                    : YUV
  18. Chroma subsampling             : 4:2:0
  19. Bit depth                      : 8 bits
  20. Scan type                      : Progressive
  21. Bits/(Pixel*Frame)             : 0.112
  22. Stream size                    : 3.62 GiB (96%)
  23. Title                          : @至尊宝
  24. Language                       : Chinese
  25. Default                        : Yes
  26. Forced                         : No

  27. Audio #1
  28. ID                             : 2
  29. Format                         : AAC LC
  30. Format/Info                    : Advanced Audio Codec Low Complexity
  31. Codec ID                       : A_AAC-2
  32. Duration                       : 1 h 29 min
  33. Bit rate                       : 125 kb/s
  34. Channel(s)                     : 2 channels
  35. Channel layout                 : L R
  36. Sampling rate                  : 44.1 kHz
  37. Frame rate                     : 43.066 FPS (1024 SPF)
  38. Compression mode               : Lossy
  39. Stream size                    : 79.8 MiB (2%)
  40. Title                          : 国语
  41. Language                       : Chinese
  42. Default                        : Yes
  43. Forced                         : No

  44. Audio #2
  45. ID                             : 3
  46. Format                         : AAC LC
  47. Format/Info                    : Advanced Audio Codec Low Complexity
  48. Codec ID                       : A_AAC-2
  49. Duration                       : 1 h 29 min
  50. Bit rate                       : 125 kb/s
  51. Channel(s)                     : 2 channels
  52. Channel layout                 : L R
  53. Sampling rate                  : 44.1 kHz
  54. Frame rate                     : 43.066 FPS (1024 SPF)
  55. Compression mode               : Lossy
  56. Stream size                    : 79.9 MiB (2%)
  57. Title                          : 粤语
  58. Language                       : Chinese
  59. Default                        : No
  60. Forced                         : No

  61. Text #1
  62. ID                             : 4
  63. Format                         : ASS
  64. Codec ID                       : S_TEXT/ASS
  65. Codec ID/Info                  : Advanced Sub Station Alpha
  66. Duration                       : 1 h 25 min
  67. Bit rate                       : 88 b/s
  68. Count of elements              : 781
  69. Compression mode               : Lossless
  70. Stream size                    : 55.5 KiB (0%)
  71. Title                          : 简体中文ASS
  72. Language                       : Chinese
  73. Default                        : Yes
  74. Forced                         : No

  75. Text #2
  76. ID                             : 5
  77. Format                         : ASS
  78. Codec ID                       : S_TEXT/ASS
  79. Codec ID/Info                  : Advanced Sub Station Alpha
  80. Duration                       : 1 h 25 min
  81. Bit rate                       : 88 b/s
  82. Count of elements              : 781
  83. Compression mode               : Lossless
  84. Stream size                    : 55.5 KiB (0%)
  85. Title                          : 繁体中文ASS
  86. Language                       : Chinese
  87. Default                        : No
  88. Forced                         : No

  89. Text #3
  90. ID                             : 6
  91. Format                         : UTF-8
  92. Codec ID                       : S_TEXT/UTF8
  93. Codec ID/Info                  : UTF-8 Plain Text
  94. Duration                       : 1 h 25 min
  95. Bit rate                       : 30 b/s
  96. Count of elements              : 781
  97. Stream size                    : 19.0 KiB (0%)
  98. Title                          : 简体中文SRT
  99. Language                       : Chinese
  100. Default                        : No
  101. Forced                         : No

  102. Text #4
  103. ID                             : 7
  104. Format                         : UTF-8
  105. Codec ID                       : S_TEXT/UTF8
  106. Codec ID/Info                  : UTF-8 Plain Text
  107. Duration                       : 1 h 25 min
  108. Bit rate                       : 30 b/s
  109. Count of elements              : 781
  110. Stream size                    : 19.0 KiB (0%)
  111. Title                          : 繁体中文SRT
  112. Language                       : Chinese
  113. Default                        : No
  114. Forced                         : No

  115. Menu
  116. 00:00:00.000                   : en:第 01 章
  117. 00:05:50.083                   : en:第 02 章
  118. 00:12:22.416                   : en:第 03 章
  119. 00:21:01.041                   : en:第 04 章
  120. 00:30:21.041                   : en:第 05 章
  121. 00:42:55.333                   : en:第 06 章
  122. 00:51:59.166                   : en:第 07 章
  123. 00:56:15.916                   : en:第 08 章
  124. 01:04:06.708                   : en:第 09 章
  125. 01:13:55.250                   : en:第 10 章
  126. 01:22:41.458                   : en:第 11 章
  127. 01:30:59.083                   : en:第 12 章

复制代码




点击进入百度网盘下载(←购买前请先验证分享链接是否有效)



此处内容付费可见

此处内容需要向楼主支付盘币或购买VIP才能显示 已有 57 人购买 

支付 12 盘币 升级VIP


该资源其他网盘分享渠道→点此了解功能详情

使用115网盘下载(来自 至尊宝c 的分享,下载需要单独支付 12 盘币)

免责申明 - 论坛版权1、本站所有资源均来自会员分享或网络收集整理,仅供会员交流学习,禁用商业用途或盈利,下载后请在24小时之内删除;
2、本站(www.pan6.com)支持正版,本资源版权归版权方所有,观看或阅读请到相应机构购买正版资源;
3、本站资源均来源于网络,本站不参与录制、上传,如本帖侵犯到任何版权问题,请立即告知本站(admin#pan6.com(#=@)),本站将及时予与删除并致以最深的歉意;
楼主热贴推荐
华语影视爱好者
BT资源无法下载:戳这里,不会发帖、金币相关等新手问题:戳这里
回复

拉黑 使用道具 举报

为保留有用回复信息,此处有 57 个购买者的感谢留言已隐藏

主题
1
活跃值
2831
热心值
3
盘币
620
注册时间
2018-1-11
最后登录
2021-12-1
在线时间
27 小时
发表于 2021-11-15 09:38:30 | 显示全部楼层
感谢分享。。。。。。。。。。
回复

拉黑 使用道具 举报

主题
0
活跃值
3175
热心值
0
盘币
2015
注册时间
2016-2-15
最后登录
2021-12-1
在线时间
352 小时
发表于 2021-11-15 09:54:03 | 显示全部楼层
我爱杨丽菁!!!!!!
回复

拉黑 使用道具 举报

主题
306
活跃值
5131
热心值
96
盘币
8581
注册时间
2016-12-25
最后登录
2021-12-1
在线时间
2366 小时

阳光心情长期在线老会员勋章普通精华爱心满满鼎力支持优秀会员灌水之王热心人士动漫达人

发表于 2021-11-15 11:37:56 来自手机 | 显示全部楼层
宝哥,皇家师姐267有清晰点的版本吗
回复

拉黑 使用道具 举报

主题
2932
活跃值
20619
热心值
2394
盘币
431187
注册时间
2018-4-7
最后登录
2021-12-1
在线时间
1688 小时

长期在线阳光心情老会员勋章鼎力支持我是土豪优秀会员普通精华热心人士爱心满满灌水之王荣誉会员资源组成员动漫达人夜猫子

 楼主| 发表于 2021-11-15 11:53:57 | 显示全部楼层
kklala 发表于 2021-11-15 11:37
宝哥,皇家师姐267有清晰点的版本吗

这些应该只有硬字幕
华语影视爱好者
回复

拉黑 使用道具 举报

主题
306
活跃值
5131
热心值
96
盘币
8581
注册时间
2016-12-25
最后登录
2021-12-1
在线时间
2366 小时

阳光心情长期在线老会员勋章普通精华爱心满满鼎力支持优秀会员灌水之王热心人士动漫达人

发表于 2021-11-15 12:05:49 来自手机 | 显示全部楼层
至尊宝c 发表于 2021-11-15 11:53
这些应该只有硬字幕

宝哥,有空的时候发布一下吧
回复

拉黑 使用道具 举报

主题
0
活跃值
1917
热心值
0
盘币
583
注册时间
2018-3-9
最后登录
2021-11-29
在线时间
16 小时
发表于 2021-11-16 01:12:57 | 显示全部楼层
好东西 感谢楼主的分享了先
回复

拉黑 使用道具 举报

主题
23
活跃值
580
热心值
4
盘币
137
注册时间
2019-10-13
最后登录
2021-12-1
在线时间
302 小时
发表于 2021-11-18 12:15:51 来自手机 | 显示全部楼层
请问6和7有修复版吗
回复

拉黑 使用道具 举报

主题
23
活跃值
580
热心值
4
盘币
137
注册时间
2019-10-13
最后登录
2021-12-1
在线时间
302 小时
发表于 2021-11-18 12:16:28 来自手机 | 显示全部楼层
kklala 发表于 2021-11-15 11:37
宝哥,皇家师姐267有清晰点的版本吗

12都有蓝光版
回复

拉黑 使用道具 举报

严禁灌水、讽刺、挖苦、辱骂分享者行为。回复前请详读:点击进入 理性回复,以免永久封禁。
您需要登录后才可以回帖 登录 | 加入论坛

本版积分规则

免责声明:本站所有资源均收集自互联网,没有提供影片资源存储,也未参与录制、上传。若本站收录的资源涉及您的版权或知识产权或其他利益,请附上版权证明邮件告知,在收到邮件后24小时内删除。

Copyright © 2012 [盘乐网] 管理员邮箱:admin#pan6.com(#=@)

站长信箱|sitemap|手机版|小黑屋|百度统计|盘乐网 ( 粤ICP备18120611号 )

快速回复 返回顶部 返回列表