盘乐网

 找回密码
 加入论坛
提示:多个关键词中间加空格 例如:天龙八部 星河
查看: 858|回复: 69

[WEB-DL] [中国香港][1987][肝胆相照][刘德华/张国强/董骠][动作][国粤语简繁软中字][1080P][MKV/3.9G][超清修复无水印] 含百度网盘 含115网盘

  [复制链接]

主题
2932
活跃值
20619
热心值
2394
盘币
431189
注册时间
2018-4-7
最后登录
2021-12-1
在线时间
1688 小时

长期在线阳光心情老会员勋章鼎力支持我是土豪优秀会员普通精华热心人士爱心满满灌水之王荣誉会员资源组成员动漫达人夜猫子

发表于 2021-11-15 10:02:21 | 显示全部楼层 |阅读模式
请尊重分享者,本资源仅限交流未经楼主同意严禁转载或盈利,违者封号处理!
cover_gaitubao_455x692.jpg

◎译  名 肝胆相照 / Sworn Brothers
◎片  名 肝膽相照
◎年  代 1987
◎产  地 中国香港
◎类  别 剧情 / 动作
◎语  言 汉语普通话/粤语
◎上映日期 1987-03-12(中国香港)
◎IMDb评星  ★★★★★★☆☆☆☆
◎IMDb评分  5.8/10 from 64 users
◎IMDb链接  https://www.imdb.com/title/tt0093071/
◎豆瓣评星 ★★★☆☆
◎豆瓣评分 6.4/10 from 1,287 users
◎豆瓣链接 https://movie.douban.com/subject/1295522/
◎片  长 91分钟
◎导  演 黎大炜 / David Lai
◎演  员 刘德华 / Andy Lau
      张国强 / Kwok Keung Cheung
      杨群 / Peter Yang Kwan
      董骠 / Bill Tung
      萧红梅 / Hung-mei Hsiao
      黄智强 / Ji Keung Wong
      林富伟 / Fu-wai Lam
      高雄 / Eddy Ko
      伍国健 / Kwok-kin Ng
      简达华 / Tat-Wah Gan
      钱嘉乐 / Kar Lok Chin
      智一桐 / Yitong Zhi
◎编  剧 黎大炜 / David Lai
◎制  片  人 陈可辛 / Peter Chan
◎音  乐 周锦祥 / Gam Cheung Chow
◎制片管理 陈佩华 / Jessica Chan Pooi-Wa
◎其  它 周少龙 / Shao Lung Chou

◎标  签 刘德华 | 香港 | 香港电影 | 动作 | 黑帮 | 1987 | 警匪 | 张国强

◎简  介 

  退休警察豹叔膝下有儿子阿国(张国强 饰)和养子阿定(刘德华 饰),阿国曾是国际刑警,如今返港担任督察;而阿定则混迹黑道,虽然收入丰厚并颇得老板杨东海赏识,但阿定拒绝贩毒令杨东海很为难。阿定与阿国情同手足,但并未打探彼此工作。不久,阿国受命调查杨东海一伙,同时阿定中了杨东海苦肉计,不得不与毒贩接洽,结果引发血战。背负杀人嫌疑的阿定被阿国追索,侥幸逃脱后连累后者遭警队处罚。另一方面,阿定和阿国在警队中的对头步步紧逼他们,最终身死,而阿定的女友雯雯(萧红梅 饰)为阿定几次犯险,阿定不忍弃她而去独自出国避祸,形势越来越向失控的地步发展……

◎幕后揭秘

  影片集合了香港电影界超豪华的阵容,故事糅合进了《监狱风云》、《龙虎风云》、《省港旗兵》等优秀影片的一系列卖点与成功因素,炮制而成一个商业拼盘。只可惜,影片剧情凌乱,结构分散,没有叙事重心,导致整体失控,成为败笔。虽然全片有着相当雄厚的投资,也想冲击一下票房三甲,但最终的结果却是卖座未过千万,口碑平平,可谓是全盘皆输,遭遇滑铁卢。


◎截    图
肝胆相照.1987.WEB-DL.Sworn Brothers.2Audio.@至尊宝.mkv_20211112_140558.398.jpg 肝胆相照.1987.WEB-DL.Sworn Brothers.2Audio.@至尊宝.mkv_20211112_140515.615.jpg 肝胆相照.1987.WEB-DL.Sworn Brothers.2Audio.@至尊宝.mkv_20211112_140501.886.jpg 肝胆相照.1987.WEB-DL.Sworn Brothers.2Audio.@至尊宝.mkv_20211112_140432.472.jpg

肝胆相照.1987.WEB-DL.Sworn Brothers.2Audio.@至尊宝.mkv.jpg

  1. Video
  2. ID                             : 1
  3. Format                         : AVC
  4. Format/Info                    : Advanced Video Codec
  5. Format profile                 : High@L4.1
  6. Format settings                : CABAC / 3 Ref Frames
  7. Format settings, CABAC         : Yes
  8. Format settings, Reference fra : 3 frames
  9. Codec ID                       : V_MPEG4/ISO/AVC
  10. Duration                       : 1 h 33 min
  11. Bit rate                       : 5 647 kb/s
  12. Width                          : 1 920 pixels
  13. Height                         : 1 032 pixels
  14. Display aspect ratio           : 1.85:1
  15. Frame rate mode                : Constant
  16. Frame rate                     : 25.000 FPS
  17. Color space                    : YUV
  18. Chroma subsampling             : 4:2:0
  19. Bit depth                      : 8 bits
  20. Scan type                      : Progressive
  21. Bits/(Pixel*Frame)             : 0.114
  22. Stream size                    : 3.70 GiB (95%)
  23. Title                          : @至尊宝
  24. Language                       : Chinese
  25. Default                        : Yes
  26. Forced                         : No

  27. Audio #1
  28. ID                             : 2
  29. Format                         : AAC LC
  30. Format/Info                    : Advanced Audio Codec Low Complexity
  31. Codec ID                       : A_AAC-2
  32. Duration                       : 1 h 33 min
  33. Bit rate                       : 125 kb/s
  34. Channel(s)                     : 2 channels
  35. Channel layout                 : L R
  36. Sampling rate                  : 44.1 kHz
  37. Frame rate                     : 43.066 FPS (1024 SPF)
  38. Compression mode               : Lossy
  39. Stream size                    : 83.5 MiB (2%)
  40. Title                          : 国语
  41. Language                       : Chinese
  42. Default                        : Yes
  43. Forced                         : No

  44. Audio #2
  45. ID                             : 3
  46. Format                         : AAC LC
  47. Format/Info                    : Advanced Audio Codec Low Complexity
  48. Codec ID                       : A_AAC-2
  49. Duration                       : 1 h 33 min
  50. Bit rate                       : 125 kb/s
  51. Channel(s)                     : 2 channels
  52. Channel layout                 : L R
  53. Sampling rate                  : 44.1 kHz
  54. Frame rate                     : 43.066 FPS (1024 SPF)
  55. Compression mode               : Lossy
  56. Stream size                    : 83.9 MiB (2%)
  57. Title                          : 粤语
  58. Language                       : Chinese
  59. Default                        : No
  60. Forced                         : No

  61. Text #1
  62. ID                             : 4
  63. Format                         : ASS
  64. Codec ID                       : S_TEXT/ASS
  65. Codec ID/Info                  : Advanced Sub Station Alpha
  66. Duration                       : 1 h 29 min
  67. Bit rate                       : 109 b/s
  68. Count of elements              : 1052
  69. Compression mode               : Lossless
  70. Stream size                    : 71.8 KiB (0%)
  71. Title                          : 简体中文ASS
  72. Language                       : Chinese
  73. Default                        : Yes
  74. Forced                         : No

  75. Text #2
  76. ID                             : 5
  77. Format                         : ASS
  78. Codec ID                       : S_TEXT/ASS
  79. Codec ID/Info                  : Advanced Sub Station Alpha
  80. Duration                       : 1 h 29 min
  81. Bit rate                       : 109 b/s
  82. Count of elements              : 1052
  83. Compression mode               : Lossless
  84. Stream size                    : 71.8 KiB (0%)
  85. Title                          : 繁体中文ASS
  86. Language                       : Chinese
  87. Default                        : No
  88. Forced                         : No

  89. Text #3
  90. ID                             : 6
  91. Format                         : UTF-8
  92. Codec ID                       : S_TEXT/UTF8
  93. Codec ID/Info                  : UTF-8 Plain Text
  94. Duration                       : 1 h 29 min
  95. Bit rate                       : 34 b/s
  96. Count of elements              : 1052
  97. Stream size                    : 22.6 KiB (0%)
  98. Title                          : 简体中文SRT
  99. Language                       : Chinese
  100. Default                        : No
  101. Forced                         : No

  102. Text #4
  103. ID                             : 7
  104. Format                         : UTF-8
  105. Codec ID                       : S_TEXT/UTF8
  106. Codec ID/Info                  : UTF-8 Plain Text
  107. Duration                       : 1 h 29 min
  108. Bit rate                       : 34 b/s
  109. Count of elements              : 1052
  110. Stream size                    : 22.6 KiB (0%)
  111. Title                          : 繁体中文SRT
  112. Language                       : Chinese
  113. Default                        : No
  114. Forced                         : No

  115. Menu
  116. 00:00:00.000                   : en:第 01 章
  117. 00:05:50.083                   : en:第 02 章
  118. 00:12:22.416                   : en:第 03 章
  119. 00:21:01.041                   : en:第 04 章
  120. 00:30:21.041                   : en:第 05 章
  121. 00:42:55.333                   : en:第 06 章
  122. 00:51:59.166                   : en:第 07 章
  123. 00:56:15.916                   : en:第 08 章
  124. 01:04:06.708                   : en:第 09 章
  125. 01:13:55.250                   : en:第 10 章
  126. 01:22:41.458                   : en:第 11 章
  127. 01:30:59.083                   : en:第 12 章

复制代码




点击进入百度网盘下载(←购买前请先验证分享链接是否有效)



此处内容付费可见

此处内容需要向楼主支付盘币或购买VIP才能显示 已有 63 人购买 

支付 12 盘币 升级VIP


该资源其他网盘分享渠道→点此了解功能详情

使用115网盘下载(来自 至尊宝c 的分享,下载需要单独支付 12 盘币)

免责申明 - 论坛版权1、本站所有资源均来自会员分享或网络收集整理,仅供会员交流学习,禁用商业用途或盈利,下载后请在24小时之内删除;
2、本站(www.pan6.com)支持正版,本资源版权归版权方所有,观看或阅读请到相应机构购买正版资源;
3、本站资源均来源于网络,本站不参与录制、上传,如本帖侵犯到任何版权问题,请立即告知本站(admin#pan6.com(#=@)),本站将及时予与删除并致以最深的歉意;

点赞

参与人数 3热心值 +3

给力资源,感谢分享! + 1

资源给力! + 1

谢谢@Thanks! + 1

查看点赞详情

楼主热贴推荐
华语影视爱好者
BT资源无法下载:戳这里,不会发帖、金币相关等新手问题:戳这里
回复

拉黑 使用道具 举报

为保留有用回复信息,此处有 63 个购买者的感谢留言已隐藏

主题
65
活跃值
3114
热心值
38
盘币
185
注册时间
2017-6-3
最后登录
2021-12-1
在线时间
497 小时
发表于 2021-11-15 10:39:22 | 显示全部楼层
没有港版蓝光修复吗?
回复

拉黑 使用道具 举报

主题
1
活跃值
2135
热心值
-4
盘币
700
注册时间
2018-4-28
最后登录
2021-12-1
在线时间
371 小时
发表于 2021-11-15 11:35:00 | 显示全部楼层
华仔较早期的作品,印象深刻。仅就片子质量而言,算不上多好,但对于华仔影迷而言不容错过。洗版了,感谢老师分享!
回复

拉黑 使用道具 举报

主题
8
活跃值
1230
热心值
5
盘币
369
注册时间
2020-4-5
最后登录
2021-11-30
在线时间
233 小时
发表于 2021-11-15 18:34:12 | 显示全部楼层
不知道这个版本国语音轨是否完整啊。
回复

拉黑 使用道具 举报

主题
33
活跃值
876
热心值
25
盘币
1345
注册时间
2015-8-25
最后登录
2021-11-30
在线时间
181 小时
发表于 2021-11-16 12:00:59 | 显示全部楼层
片子不错,收全刘德华,呵呵,谢谢楼主
回复

拉黑 使用道具 举报

主题
0
活跃值
7
热心值
0
盘币
2404
注册时间
2020-3-18
最后登录
2021-12-1
在线时间
20 小时
发表于 2021-11-16 12:29:35 | 显示全部楼层
虽然是老电影,但是有高清版,很稀有,感谢分享。
回复

拉黑 使用道具 举报

主题
0
活跃值
1506
热心值
0
盘币
91
注册时间
2017-11-24
最后登录
2021-11-30
在线时间
229 小时
发表于 2021-11-16 20:04:25 | 显示全部楼层
这个灰常的好,感谢~~
回复

拉黑 使用道具 举报

严禁灌水、讽刺、挖苦、辱骂分享者行为。回复前请详读:点击进入 理性回复,以免永久封禁。
您需要登录后才可以回帖 登录 | 加入论坛

本版积分规则

免责声明:本站所有资源均收集自互联网,没有提供影片资源存储,也未参与录制、上传。若本站收录的资源涉及您的版权或知识产权或其他利益,请附上版权证明邮件告知,在收到邮件后24小时内删除。

Copyright © 2012 [盘乐网] 管理员邮箱:admin#pan6.com(#=@)

站长信箱|sitemap|手机版|小黑屋|百度统计|盘乐网 ( 粤ICP备18120611号 )

快速回复 返回顶部 返回列表