盘乐网

 找回密码
 加入论坛
提示:多个关键词中间加空格 例如:天龙八部 星河
查看: 625|回复: 59

[WEB-DL] [中国香港][1987][天赐良缘][张学友/张曼玉/郑裕玲][喜剧][国粤语简繁软中字][1080P][MKV/5.35G][超清修复无水印] 含百度网盘 含115网盘

  [复制链接]

主题
2932
活跃值
20619
热心值
2394
盘币
431243
注册时间
2018-4-7
最后登录
2021-12-1
在线时间
1688 小时

长期在线阳光心情老会员勋章鼎力支持我是土豪优秀会员普通精华热心人士爱心满满灌水之王荣誉会员资源组成员动漫达人夜猫子

发表于 2021-11-18 14:03:20 | 显示全部楼层 |阅读模式
请尊重分享者,本资源仅限交流未经楼主同意严禁转载或盈利,违者封号处理!
cover_gaitubao_455x553.jpg

◎译  名 Tian ci liang yuan / Heavenly Fate / Sister Cupid
◎片  名 天赐良缘
◎年  代 1987
◎产  地 中国香港
◎类  别 喜剧
◎语  言 汉语普通话/粤语
◎上映日期 1987-04-16
◎IMDb评星  ★★★★★★✦☆☆☆
◎IMDb评分  6.7/10 from 43 users
◎IMDb链接  https://www.imdb.com/title/tt0094145/
◎豆瓣评星 ★★★✦☆
◎豆瓣评分 6.7/10 from 2,299 users
◎豆瓣链接 https://movie.douban.com/subject/1305907/
◎片  长 95分钟
◎导  演 黎应就 / Guy Lai
◎演  员 张学友 / Jacky Cheung
      张曼玉 / Maggie Cheung
      郑裕玲 / Carol 'Do Do' Cheng
      夏文汐 / Patricia Ha
      邓碧云 / Pik-Wan Tang
      陈百祥 / Pak-cheung Chan
      亦干霞 / Gon-Ha Yick
◎其  它 黄斌 / Ronald Wong
      张祖儿 / Jo-Yee Cheung

◎标  签 张曼玉 | 香港 | 张学友 | 香港电影 | 喜剧 | 爱情 | 郑裕玲 | 夏文汐

◎简  介 

  舞女金大班(郑裕玲 饰)疼爱弟弟吉仔(张学友 饰)。但吉仔生性懦弱,常夹在姐姐与女友珍妮(夏文汐 饰)之间当出气包。大班为了讨好有权有势的大姐头,提议为大姐头死去的女儿小立(张曼玉 饰)寻找夫婿,不料弄巧成拙,自己的弟弟成为了最佳人选。珍妮要求吉仔一起私奔,中途却发生意外,吉仔幸运得到二十年前死去的小立救回。吉仔就此爱上了小立,大班得知情况后便与珍妮联合起来拆散这对人鬼恋。大班与珍妮极力说服小立离开吉仔,并计划让小立再度投胎,面对与吉仔间的朗情妾意,小立不知如何是好。


◎截    图
天赐良缘.1987.WEB-DL.Heavenly Fate.2Audio.@至尊宝.mkv_20211118_001941.828.jpg 天赐良缘.1987.WEB-DL.Heavenly Fate.2Audio.@至尊宝.mkv_20211118_001857.801.jpg 天赐良缘.1987.WEB-DL.Heavenly Fate.2Audio.@至尊宝.mkv_20211118_001836.297.jpg 天赐良缘.1987.WEB-DL.Heavenly Fate.2Audio.@至尊宝.mkv_20211118_001752.750.jpg

天赐良缘.1987.WEB-DL.Heavenly Fate.2Audio.@至尊宝.mkv.jpg

  1. Video
  2. ID                             : 1
  3. Format                         : AVC
  4. Format/Info                    : Advanced Video Codec
  5. Format profile                 : High@L4
  6. Format settings                : CABAC / 4 Ref Frames
  7. Format settings, CABAC         : Yes
  8. Format settings, Reference fra : 4 frames
  9. Codec ID                       : V_MPEG4/ISO/AVC
  10. Duration                       : 1 h 39 min
  11. Bit rate                       : 7 000 kb/s
  12. Width                          : 1 920 pixels
  13. Height                         : 1 080 pixels
  14. Display aspect ratio           : 16:9
  15. Frame rate mode                : Constant
  16. Frame rate                     : 25.000 FPS
  17. Color space                    : YUV
  18. Chroma subsampling             : 4:2:0
  19. Bit depth                      : 8 bits
  20. Scan type                      : Progressive
  21. Bits/(Pixel*Frame)             : 0.135
  22. Stream size                    : 4.87 GiB (91%)
  23. Title                          : @至尊宝
  24. Writing library                : x264 core 120 r2164 da19765
  25. Encoding settings              : cabac=1 / ref=3 / deblock=1:-3:-3 / analyse=0x3:0x113 / me=hex / subme=7 / psy=1 / psy_rd=1.00:0.00 / mixed_ref=1 / me_range=16 / chroma_me=1 / trellis=1 / 8x8dct=1 / cqm=0 / deadzone=21,11 / fast_pskip=1 / chroma_qp_offset=-2 / threads=24 / sliced_threads=0 / nr=0 / decimate=1 / interlaced=0 / bluray_compat=0 / constrained_intra=0 / bframes=3 / b_pyramid=2 / b_adapt=1 / b_bias=0 / direct=1 / weightb=1 / open_gop=1 / weightp=2 / keyint=250 / keyint_min=25 / scenecut=40 / intra_refresh=0 / rc_lookahead=40 / rc=2pass / mbtree=1 / bitrate=7000 / ratetol=1.0 / qcomp=0.60 / qpmin=0 / qpmax=69 / qpstep=4 / cplxblur=20.0 / qblur=0.5 / ip_ratio=1.40 / aq=1:1.00
  26. Language                       : Chinese
  27. Default                        : Yes
  28. Forced                         : No
  29. Color range                    : Limited
  30. Color primaries                : BT.709
  31. Transfer characteristics       : BT.709
  32. Matrix coefficients            : BT.709

  33. Audio #1
  34. ID                             : 2
  35. Format                         : AAC LC
  36. Format/Info                    : Advanced Audio Codec Low Complexity
  37. Codec ID                       : A_AAC-2
  38. Duration                       : 1 h 39 min
  39. Bit rate                       : 96.0 kb/s
  40. Channel(s)                     : 2 channels
  41. Channel layout                 : L R
  42. Sampling rate                  : 48.0 kHz
  43. Frame rate                     : 46.875 FPS (1024 SPF)
  44. Compression mode               : Lossy
  45. Delay relative to video        : 1 s 0 ms
  46. Stream size                    : 68.3 MiB (1%)
  47. Title                          : 国语
  48. Language                       : Chinese
  49. Default                        : Yes
  50. Forced                         : Yes

  51. Audio #2
  52. ID                             : 3
  53. Format                         : AAC LC
  54. Format/Info                    : Advanced Audio Codec Low Complexity
  55. Codec ID                       : A_AAC-2
  56. Duration                       : 1 h 39 min
  57. Bit rate                       : 576 kb/s
  58. Channel(s)                     : 6 channels
  59. Channel layout                 : C L R Ls Rs LFE
  60. Sampling rate                  : 48.0 kHz
  61. Frame rate                     : 46.875 FPS (1024 SPF)
  62. Compression mode               : Lossy
  63. Stream size                    : 413 MiB (8%)
  64. Title                          : 粤语
  65. Language                       : Chinese
  66. Default                        : No
  67. Forced                         : No

  68. Text #1
  69. ID                             : 4
  70. Format                         : ASS
  71. Codec ID                       : S_TEXT/ASS
  72. Codec ID/Info                  : Advanced Sub Station Alpha
  73. Duration                       : 1 h 33 min
  74. Bit rate                       : 147 b/s
  75. Count of elements              : 1380
  76. Compression mode               : Lossless
  77. Stream size                    : 101 KiB (0%)
  78. Title                          : 简体中文ASS
  79. Language                       : Chinese
  80. Default                        : Yes
  81. Forced                         : No

  82. Text #2
  83. ID                             : 5
  84. Format                         : ASS
  85. Codec ID                       : S_TEXT/ASS
  86. Codec ID/Info                  : Advanced Sub Station Alpha
  87. Duration                       : 1 h 33 min
  88. Bit rate                       : 147 b/s
  89. Count of elements              : 1380
  90. Compression mode               : Lossless
  91. Stream size                    : 101 KiB (0%)
  92. Title                          : 繁体中文ASS
  93. Language                       : Chinese
  94. Default                        : No
  95. Forced                         : No

  96. Text #3
  97. ID                             : 6
  98. Format                         : UTF-8
  99. Codec ID                       : S_TEXT/UTF8
  100. Codec ID/Info                  : UTF-8 Plain Text
  101. Duration                       : 1 h 33 min
  102. Bit rate                       : 53 b/s
  103. Count of elements              : 1380
  104. Stream size                    : 36.5 KiB (0%)
  105. Title                          : 简体中文SRT
  106. Language                       : Chinese
  107. Default                        : No
  108. Forced                         : No

  109. Text #4
  110. ID                             : 7
  111. Format                         : UTF-8
  112. Codec ID                       : S_TEXT/UTF8
  113. Codec ID/Info                  : UTF-8 Plain Text
  114. Duration                       : 1 h 33 min
  115. Bit rate                       : 53 b/s
  116. Count of elements              : 1380
  117. Stream size                    : 36.5 KiB (0%)
  118. Title                          : 繁体中文SRT
  119. Language                       : Chinese
  120. Default                        : No
  121. Forced                         : No

  122. Menu
  123. 00:00:00.000                   : en:第 01 章
  124. 00:05:50.083                   : en:第 02 章
  125. 00:12:22.416                   : en:第 03 章
  126. 00:21:01.041                   : en:第 04 章
  127. 00:30:21.041                   : en:第 05 章
  128. 00:42:55.333                   : en:第 06 章
  129. 00:51:59.166                   : en:第 07 章
  130. 00:56:15.916                   : en:第 08 章
  131. 01:04:06.708                   : en:第 09 章
  132. 01:13:55.250                   : en:第 10 章
  133. 01:22:41.458                   : en:第 11 章
  134. 01:30:59.083                   : en:第 12 章

复制代码




点击进入百度网盘下载(←购买前请先验证分享链接是否有效)



此处内容付费可见

此处内容需要向楼主支付盘币或购买VIP才能显示 已有 55 人购买 

支付 12 盘币 升级VIP


该资源其他网盘分享渠道→点此了解功能详情

使用115网盘下载(来自 至尊宝c 的分享,下载需要单独支付 12 盘币)

免责申明 - 论坛版权1、本站所有资源均来自会员分享或网络收集整理,仅供会员交流学习,禁用商业用途或盈利,下载后请在24小时之内删除;
2、本站(www.pan6.com)支持正版,本资源版权归版权方所有,观看或阅读请到相应机构购买正版资源;
3、本站资源均来源于网络,本站不参与录制、上传,如本帖侵犯到任何版权问题,请立即告知本站(admin#pan6.com(#=@)),本站将及时予与删除并致以最深的歉意;

点赞

参与人数 2热心值 +2

给力资源,感谢分享! + 1

给力资源,感谢分享! + 1

查看点赞详情

楼主热贴推荐
华语影视爱好者
BT资源无法下载:戳这里,不会发帖、金币相关等新手问题:戳这里
回复

拉黑 使用道具 举报

为保留有用回复信息,此处有 55 个购买者的感谢留言已隐藏

主题
1
活跃值
832
热心值
0
盘币
40
注册时间
2017-2-13
最后登录
2021-12-1
在线时间
10 小时
发表于 2021-11-18 14:13:28 | 显示全部楼层
张曼玉的电影,喜欢,谢谢分享。
回复

拉黑 使用道具 举报

主题
2
活跃值
1388
热心值
0
盘币
2685
注册时间
2020-1-11
最后登录
2021-12-1
在线时间
231 小时
发表于 2021-11-18 18:05:12 | 显示全部楼层
哇 学友电影 这部终于有修复了 谢谢
回复

拉黑 使用道具 举报

主题
0
活跃值
3440
热心值
0
盘币
44
注册时间
2018-1-3
最后登录
2021-11-30
在线时间
129 小时
发表于 2021-11-18 18:56:40 | 显示全部楼层
非常感谢楼主分享 谢谢!
回复

拉黑 使用道具 举报

主题
1
活跃值
10835
热心值
2
盘币
17
注册时间
2015-5-3
最后登录
2021-12-1
在线时间
587 小时
发表于 2021-11-19 11:11:28 | 显示全部楼层
感谢楼主分享
回复

拉黑 使用道具 举报

严禁灌水、讽刺、挖苦、辱骂分享者行为。回复前请详读:点击进入 理性回复,以免永久封禁。
您需要登录后才可以回帖 登录 | 加入论坛

本版积分规则

免责声明:本站所有资源均收集自互联网,没有提供影片资源存储,也未参与录制、上传。若本站收录的资源涉及您的版权或知识产权或其他利益,请附上版权证明邮件告知,在收到邮件后24小时内删除。

Copyright © 2012 [盘乐网] 管理员邮箱:admin#pan6.com(#=@)

站长信箱|sitemap|手机版|小黑屋|百度统计|盘乐网 ( 粤ICP备18120611号 )

快速回复 返回顶部 返回列表