盘乐网

 找回密码
 加入论坛
提示:多个关键词中间加空格 例如:天龙八部 星河
查看: 603|回复: 60

[WEB-DL] [中国香港][1985][智勇三宝][许冠文/吴耀汉/陈百祥][喜剧][国粤语简繁软中字][1080P][MKV/3.46G][超清修复无水印] 含百度网盘 含115网盘

  [复制链接]

主题
2932
活跃值
20619
热心值
2394
盘币
431360
注册时间
2018-4-7
最后登录
2021-12-1
在线时间
1688 小时

长期在线阳光心情老会员勋章鼎力支持我是土豪优秀会员普通精华热心人士爱心满满灌水之王荣誉会员资源组成员动漫达人夜猫子

发表于 2021-11-20 12:58:02 | 显示全部楼层 |阅读模式
请尊重分享者,本资源仅限交流未经楼主同意严禁转载或盈利,违者封号处理!
cover_gaitubao_455x607.jpg

◎译  名 智勇三宝 / 神勇双响炮3:智勇三宝 / Mr. Boo Meets Pom Pom / 大笨贼
◎片  名 智勇三寶
◎年  代 1985
◎产  地 中国香港
◎类  别 喜剧 / 动作
◎语  言 汉语普通话/粤语
◎上映日期 1985-03-09
◎IMDb评星  ★★★★★✦☆☆☆☆
◎IMDb评分  5.7/10 from 78 users
◎IMDb链接  https://www.imdb.com/title/tt0089631/
◎豆瓣评星 ★★★☆☆
◎豆瓣评分 6.4/10 from 1,219 users
◎豆瓣链接 https://movie.douban.com/subject/1301738/
◎片  长 92 分钟
◎导  演 午马 / Wu Ma
◎演  员 许冠文 / Michael Koon Man Hui
      潘迪生 / Dickson Poon
      余慕莲 / Mo-Lin Yu
      岑建勋 / John Sham | 饰 贝多芬
      午马 / Wu Ma
      胡因梦 / Terry Hu
      翁世杰 / Sai-Kit Yung
◎音  乐 陈永良 / Wing-leung Chan
◎美  术 黄仁逵 / Yank Wong
◎其  它 钱慧仪 / Winnie Chin

◎标  签 喜剧 | 香港 | 许冠文 | 香港电影 | 吴耀汉 | 岑建勋 | 1985 | 午马

◎简  介 

  一次偶然中,阿秋(吴耀汉 饰)和贝多芬(岑建勋 饰)结识了犯罪调查专家阿文(许冠文 饰),志同道合的三人成为了很好的朋友。然而阿秋和贝多芬的真实身份系大盗,两人和阿文正邪不两立,而阿文对此并不知情,三人的关系在摇摇欲坠之中维系着艰难的平衡。
  某日,阿文在商场里撞见了自己的妻子杜白莉(胡茵梦 饰)正在和珠宝富商阿杨(翁世杰 饰)约会,遭到了背叛的阿文感到十分愤怒,决定对阿杨进行报复。阿文驾驶着自己的机车要和阿杨的豪车一决高下,哪知道遭遇了车祸,不仅自己受伤,坐骑也报废无法再骑,窘迫的时刻,阿秋和贝多芬及时出现,替阿文解了围。

◎获奖情况 

  第5届香港电影金像奖 (1986)
  最佳男主角(提名) 许冠文

◎幕后揭秘

  影片本来是想借吴耀汉与岑健勋这一对活宝唱台搞笑大戏,不想却被许冠文这个老江湖给抢去大半风头。影片卖座的第一原因,就在于许冠文这块金字招牌有着足够的吸引力,而影片精妙的喜剧剧本,以及演员们的精彩发挥,更是赢得观众口碑的最大砝码。本片不光卖座过了一千七百多万,在年度电影收益中站到了第七位,许冠文更因在影片中精彩的表现,再度获得香港电影金像奖最佳男主角的提名。


◎截    图
智勇三宝.1985.WEB-DL.Mr. Boo Meets Pom Pom.2Audio.@至尊宝.mkv_20211120_123720.32.jpg 智勇三宝.1985.WEB-DL.Mr. Boo Meets Pom Pom.2Audio.@至尊宝.mkv_20211120_123747.75.jpg 智勇三宝.1985.WEB-DL.Mr. Boo Meets Pom Pom.2Audio.@至尊宝.mkv_20211120_123801.35.jpg 智勇三宝.1985.WEB-DL.Mr. Boo Meets Pom Pom.2Audio.@至尊宝.mkv_20211120_124005.06.jpg

智勇三宝.1985.WEB-DL.Mr. Boo Meets Pom Pom.2Audio.@至尊宝.mkv.jpg

  1. Video
  2. ID                             : 1
  3. Format                         : AVC
  4. Format/Info                    : Advanced Video Codec
  5. Format profile                 : High@L4.1
  6. Format settings                : CABAC / 3 Ref Frames
  7. Format settings, CABAC         : Yes
  8. Format settings, Reference fra : 3 frames
  9. Codec ID                       : V_MPEG4/ISO/AVC
  10. Duration                       : 1 h 33 min
  11. Bit rate                       : 5 006 kb/s
  12. Width                          : 1 920 pixels
  13. Height                         : 1 080 pixels
  14. Display aspect ratio           : 16:9
  15. Frame rate mode                : Constant
  16. Frame rate                     : 24.000 FPS
  17. Color space                    : YUV
  18. Chroma subsampling             : 4:2:0
  19. Bit depth                      : 8 bits
  20. Scan type                      : Progressive
  21. Bits/(Pixel*Frame)             : 0.101
  22. Stream size                    : 3.28 GiB (95%)
  23. Title                          : @至尊宝
  24. Language                       : Chinese
  25. Default                        : Yes
  26. Forced                         : No

  27. Audio #1
  28. ID                             : 2
  29. Format                         : AAC LC
  30. Format/Info                    : Advanced Audio Codec Low Complexity
  31. Codec ID                       : A_AAC-2
  32. Duration                       : 1 h 33 min
  33. Bit rate                       : 124 kb/s
  34. Channel(s)                     : 2 channels
  35. Channel layout                 : L R
  36. Sampling rate                  : 44.1 kHz
  37. Frame rate                     : 43.066 FPS (1024 SPF)
  38. Compression mode               : Lossy
  39. Stream size                    : 83.1 MiB (2%)
  40. Title                          : 国语
  41. Language                       : Chinese
  42. Default                        : Yes
  43. Forced                         : No

  44. Audio #2
  45. ID                             : 3
  46. Format                         : AAC LC
  47. Format/Info                    : Advanced Audio Codec Low Complexity
  48. Codec ID                       : A_AAC-2
  49. Duration                       : 1 h 33 min
  50. Bit rate                       : 125 kb/s
  51. Channel(s)                     : 2 channels
  52. Channel layout                 : L R
  53. Sampling rate                  : 44.1 kHz
  54. Frame rate                     : 43.066 FPS (1024 SPF)
  55. Compression mode               : Lossy
  56. Stream size                    : 83.7 MiB (2%)
  57. Title                          : 粤语
  58. Language                       : Chinese
  59. Default                        : No
  60. Forced                         : No

  61. Text #1
  62. ID                             : 4
  63. Format                         : ASS
  64. Codec ID                       : S_TEXT/ASS
  65. Codec ID/Info                  : Advanced Sub Station Alpha
  66. Duration                       : 1 h 31 min
  67. Bit rate                       : 180 b/s
  68. Count of elements              : 1610
  69. Compression mode               : Lossless
  70. Stream size                    : 121 KiB (0%)
  71. Title                          : 简体中文ASS
  72. Language                       : Chinese
  73. Default                        : Yes
  74. Forced                         : No

  75. Text #2
  76. ID                             : 5
  77. Format                         : ASS
  78. Codec ID                       : S_TEXT/ASS
  79. Codec ID/Info                  : Advanced Sub Station Alpha
  80. Duration                       : 1 h 31 min
  81. Bit rate                       : 180 b/s
  82. Count of elements              : 1610
  83. Compression mode               : Lossless
  84. Stream size                    : 121 KiB (0%)
  85. Title                          : 繁体中文ASS
  86. Language                       : Chinese
  87. Default                        : No
  88. Forced                         : No

  89. Text #3
  90. ID                             : 6
  91. Format                         : UTF-8
  92. Codec ID                       : S_TEXT/UTF8
  93. Codec ID/Info                  : UTF-8 Plain Text
  94. Duration                       : 1 h 31 min
  95. Bit rate                       : 67 b/s
  96. Count of elements              : 1610
  97. Stream size                    : 44.9 KiB (0%)
  98. Title                          : 简体中文SRT
  99. Language                       : Chinese
  100. Default                        : No
  101. Forced                         : No

  102. Text #4
  103. ID                             : 7
  104. Format                         : UTF-8
  105. Codec ID                       : S_TEXT/UTF8
  106. Codec ID/Info                  : UTF-8 Plain Text
  107. Duration                       : 1 h 31 min
  108. Bit rate                       : 67 b/s
  109. Count of elements              : 1610
  110. Stream size                    : 44.9 KiB (0%)
  111. Title                          : 繁体中文SRT
  112. Language                       : Chinese
  113. Default                        : No
  114. Forced                         : No

  115. Menu
  116. 00:00:00.000                   : en:第 01 章
  117. 00:05:50.083                   : en:第 02 章
  118. 00:12:22.416                   : en:第 03 章
  119. 00:21:01.041                   : en:第 04 章
  120. 00:30:21.041                   : en:第 05 章
  121. 00:42:55.333                   : en:第 06 章
  122. 00:51:59.166                   : en:第 07 章
  123. 00:56:15.916                   : en:第 08 章
  124. 01:04:06.708                   : en:第 09 章
  125. 01:13:55.250                   : en:第 10 章
  126. 01:22:41.458                   : en:第 11 章
  127. 01:30:59.083                   : en:第 12 章

复制代码




点击进入百度网盘下载(←购买前请先验证分享链接是否有效)



此处内容付费可见

此处内容需要向楼主支付盘币或购买VIP才能显示 已有 57 人购买 

支付 12 盘币 升级VIP


该资源其他网盘分享渠道→点此了解功能详情

使用115网盘下载(来自 至尊宝c 的分享,下载需要单独支付 12 盘币)

免责申明 - 论坛版权1、本站所有资源均来自会员分享或网络收集整理,仅供会员交流学习,禁用商业用途或盈利,下载后请在24小时之内删除;
2、本站(www.pan6.com)支持正版,本资源版权归版权方所有,观看或阅读请到相应机构购买正版资源;
3、本站资源均来源于网络,本站不参与录制、上传,如本帖侵犯到任何版权问题,请立即告知本站(admin#pan6.com(#=@)),本站将及时予与删除并致以最深的歉意;
楼主热贴推荐
华语影视爱好者
BT资源无法下载:戳这里,不会发帖、金币相关等新手问题:戳这里
回复

拉黑 使用道具 举报

为保留有用回复信息,此处有 57 个购买者的感谢留言已隐藏

主题
2
活跃值
2012
热心值
5
盘币
12276
注册时间
2017-5-20
最后登录
2021-11-30
在线时间
635 小时

长期在线老会员勋章

发表于 2021-11-20 14:20:53 | 显示全部楼层
其他4部的链接也放一起就完美了!
回复

拉黑 使用道具 举报

主题
0
活跃值
6722
热心值
0
盘币
1159
注册时间
2017-10-21
最后登录
2021-12-1
在线时间
92 小时
发表于 2021-11-21 00:42:26 | 显示全部楼层
Thanks for Sharing~
回复

拉黑 使用道具 举报

主题
0
活跃值
1917
热心值
0
盘币
583
注册时间
2018-3-9
最后登录
2021-11-29
在线时间
16 小时
发表于 2021-11-21 11:17:16 | 显示全部楼层
这个是好东西 感谢楼主分享了先
回复

拉黑 使用道具 举报

严禁灌水、讽刺、挖苦、辱骂分享者行为。回复前请详读:点击进入 理性回复,以免永久封禁。
您需要登录后才可以回帖 登录 | 加入论坛

本版积分规则

免责声明:本站所有资源均收集自互联网,没有提供影片资源存储,也未参与录制、上传。若本站收录的资源涉及您的版权或知识产权或其他利益,请附上版权证明邮件告知,在收到邮件后24小时内删除。

Copyright © 2012 [盘乐网] 管理员邮箱:admin#pan6.com(#=@)

站长信箱|sitemap|手机版|小黑屋|百度统计|盘乐网 ( 粤ICP备18120611号 )

快速回复 返回顶部 返回列表