盘乐网

 找回密码
 加入论坛
提示:多个关键词中间加空格 例如:天龙八部 星河
查看: 867|回复: 62

[WEB-DL] [中国香港][2001][7号差馆][许志安/李丽珍/雷宇扬][恐怖][国粤语简繁软中字][1080P][MKV/3.49G][超清修复无水印] 含百度网盘 含115网盘

  [复制链接]

主题
2932
活跃值
20619
热心值
2394
盘币
431360
注册时间
2018-4-7
最后登录
2021-12-1
在线时间
1688 小时

长期在线阳光心情老会员勋章鼎力支持我是土豪优秀会员普通精华热心人士爱心满满灌水之王荣誉会员资源组成员动漫达人夜猫子

发表于 2021-11-22 10:00:08 | 显示全部楼层 |阅读模式
请尊重分享者,本资源仅限交流未经楼主同意严禁转载或盈利,违者封号处理!
p2530286560_gaitubao_455x641.jpg

◎译  名 7号差馆 / Nightmares In Precinct 7 / Nightmares in Precinct 7
◎片  名 7號差館
◎年  代 2001
◎产  地 中国香港
◎类  别 悬疑 / 恐怖 / 犯罪
◎语  言 汉语普通话/粤语
◎上映日期 2001-08-30
◎IMDb评星  ★★★★★★☆☆☆☆
◎IMDb评分  6.0/10 from 78 users
◎IMDb链接  https://www.imdb.com/title/tt0313403/
◎豆瓣评星 ★★★☆☆
◎豆瓣评分 6.3/10 from 1,380 users
◎豆瓣链接 https://movie.douban.com/subject/1480007/
◎片  长 91分钟
◎导  演 邱礼涛 / Herman Yau
◎演  员 李丽珍 / Loletta Lee
      许志安 / Andy Hui Chi-On
      雷宇扬 / Simon Lui
      卢淑仪 / Monica Lo
      苏永康 / William So Wing Hong
◎编  剧 雷宇扬 / Simon Lui
      邱礼涛 / Herman Yau

◎标  签 香港 | 恐怖 | 香港电影 | 李丽珍 | 许志安 | 邱礼涛 | 灵异 | 2001

◎简  介 

  屡破奇案的重案组高级督察方正(许志安)眼里,庆功会上纷纷邀功的其他部门同事多是平庸之辈,多起案件能侦破全靠自己和手下兄弟阿泽(雷宇扬)等人拼命,因此他的言行多少有些独断高傲。某次缉匪行动中,他等不及飞虎队自行下达命令,两名同事毙命街头,他自己也中枪昏迷,在医院一躺两年。
  醒来母亲已过世、女友已成他人凄,身边世界已大不同,但方正也意外收获在他昏迷时一直悉心将他照料的女护士Oscar(李丽珍)的芳心。恢复训练持续一段时间,方正各方面已与昏迷前几乎无差,更多出可见到鬼的本领。此本领起初令他恐慌,不过生前是心理医生的阿杰(张达明)一席话让他放下心来。
  回到警队后方正主动请命,接手一宗两年来无法破解的连环女护士奸杀案。两年内,已有六名女护士被奸杀,且多数死不见尸,该案能立是因其中之一自己赶到警察局向阿泽报案。方正冷静头脑,认定凶犯是一名智商极高的男性,且非常熟悉警方的破案手法。案情渐有眉目之时,方正被阿杰告知Oscar的生命磁场越来越弱,她可能是凶犯的下一个目标。


◎截    图
7号差馆.2001.WEB-DL.Nightmares In Precinct 7.2Audio.@至尊宝.mkv_20211122_004125..jpg 7号差馆.2001.WEB-DL.Nightmares In Precinct 7.2Audio.@至尊宝.mkv_20211122_004114..jpg 7号差馆.2001.WEB-DL.Nightmares In Precinct 7.2Audio.@至尊宝.mkv_20211122_004059..jpg 7号差馆.2001.WEB-DL.Nightmares In Precinct 7.2Audio.@至尊宝.mkv_20211122_004042..jpg

7号差馆.2001.WEB-DL.Nightmares In Precinct 7.2Audio.@至尊宝.mkv.jpg

  1. Video
  2. ID                             : 1
  3. Format                         : AVC
  4. Format/Info                    : Advanced Video Codec
  5. Format profile                 : High@L4.1
  6. Format settings                : CABAC / 3 Ref Frames
  7. Format settings, CABAC         : Yes
  8. Format settings, Reference fra : 3 frames
  9. Codec ID                       : V_MPEG4/ISO/AVC
  10. Duration                       : 1 h 29 min
  11. Bit rate                       : 5 279 kb/s
  12. Width                          : 1 920 pixels
  13. Height                         : 1 080 pixels
  14. Display aspect ratio           : 16:9
  15. Frame rate mode                : Constant
  16. Frame rate                     : 24.000 FPS
  17. Color space                    : YUV
  18. Chroma subsampling             : 4:2:0
  19. Bit depth                      : 8 bits
  20. Scan type                      : Progressive
  21. Bits/(Pixel*Frame)             : 0.106
  22. Stream size                    : 3.31 GiB (95%)
  23. Title                          : @至尊宝
  24. Language                       : Chinese
  25. Default                        : Yes
  26. Forced                         : No

  27. Audio #1
  28. ID                             : 2
  29. Format                         : AAC LC
  30. Format/Info                    : Advanced Audio Codec Low Complexity
  31. Codec ID                       : A_AAC-2
  32. Duration                       : 1 h 29 min
  33. Bit rate                       : 124 kb/s
  34. Channel(s)                     : 2 channels
  35. Channel layout                 : L R
  36. Sampling rate                  : 44.1 kHz
  37. Frame rate                     : 43.066 FPS (1024 SPF)
  38. Compression mode               : Lossy
  39. Stream size                    : 79.9 MiB (2%)
  40. Title                          : 国语
  41. Language                       : Chinese
  42. Default                        : Yes
  43. Forced                         : No

  44. Audio #2
  45. ID                             : 3
  46. Format                         : AAC LC
  47. Format/Info                    : Advanced Audio Codec Low Complexity
  48. Codec ID                       : A_AAC-2
  49. Duration                       : 1 h 29 min
  50. Bit rate                       : 124 kb/s
  51. Channel(s)                     : 2 channels
  52. Channel layout                 : L R
  53. Sampling rate                  : 44.1 kHz
  54. Frame rate                     : 43.066 FPS (1024 SPF)
  55. Compression mode               : Lossy
  56. Stream size                    : 79.9 MiB (2%)
  57. Title                          : 粤语
  58. Language                       : Chinese
  59. Default                        : No
  60. Forced                         : No

  61. Text #1
  62. ID                             : 4
  63. Format                         : ASS
  64. Codec ID                       : S_TEXT/ASS
  65. Codec ID/Info                  : Advanced Sub Station Alpha
  66. Duration                       : 1 h 26 min
  67. Bit rate                       : 135 b/s
  68. Count of elements              : 1217
  69. Compression mode               : Lossless
  70. Stream size                    : 85.4 KiB (0%)
  71. Title                          : 简体中文ASS
  72. Language                       : Chinese
  73. Default                        : Yes
  74. Forced                         : No

  75. Text #2
  76. ID                             : 5
  77. Format                         : ASS
  78. Codec ID                       : S_TEXT/ASS
  79. Codec ID/Info                  : Advanced Sub Station Alpha
  80. Duration                       : 1 h 26 min
  81. Bit rate                       : 135 b/s
  82. Count of elements              : 1217
  83. Compression mode               : Lossless
  84. Stream size                    : 85.4 KiB (0%)
  85. Title                          : 繁体中文ASS
  86. Language                       : Chinese
  87. Default                        : No
  88. Forced                         : No

  89. Text #3
  90. ID                             : 6
  91. Format                         : UTF-8
  92. Codec ID                       : S_TEXT/UTF8
  93. Codec ID/Info                  : UTF-8 Plain Text
  94. Duration                       : 1 h 26 min
  95. Bit rate                       : 44 b/s
  96. Count of elements              : 1217
  97. Stream size                    : 28.3 KiB (0%)
  98. Title                          : 简体中文SRT
  99. Language                       : Chinese
  100. Default                        : No
  101. Forced                         : No

  102. Text #4
  103. ID                             : 7
  104. Format                         : UTF-8
  105. Codec ID                       : S_TEXT/UTF8
  106. Codec ID/Info                  : UTF-8 Plain Text
  107. Duration                       : 1 h 26 min
  108. Bit rate                       : 44 b/s
  109. Count of elements              : 1217
  110. Stream size                    : 28.3 KiB (0%)
  111. Title                          : 繁体中文SRT
  112. Language                       : Chinese
  113. Default                        : No
  114. Forced                         : No

  115. Menu
  116. 00:00:00.000                   : en:第 01 章
  117. 00:05:50.083                   : en:第 02 章
  118. 00:12:22.416                   : en:第 03 章
  119. 00:21:01.041                   : en:第 04 章
  120. 00:30:21.041                   : en:第 05 章
  121. 00:42:55.333                   : en:第 06 章
  122. 00:51:59.166                   : en:第 07 章
  123. 00:56:15.916                   : en:第 08 章
  124. 01:04:06.708                   : en:第 09 章
  125. 01:13:55.250                   : en:第 10 章
  126. 01:22:41.458                   : en:第 11 章
  127. 01:30:59.083                   : en:第 12 章

复制代码




点击进入百度网盘下载(←购买前请先验证分享链接是否有效)



此处内容付费可见

此处内容需要向楼主支付盘币或购买VIP才能显示 已有 58 人购买 

支付 12 盘币 升级VIP


该资源其他网盘分享渠道→点此了解功能详情

使用115网盘下载(来自 至尊宝c 的分享,下载需要单独支付 12 盘币)

免责申明 - 论坛版权1、本站所有资源均来自会员分享或网络收集整理,仅供会员交流学习,禁用商业用途或盈利,下载后请在24小时之内删除;
2、本站(www.pan6.com)支持正版,本资源版权归版权方所有,观看或阅读请到相应机构购买正版资源;
3、本站资源均来源于网络,本站不参与录制、上传,如本帖侵犯到任何版权问题,请立即告知本站(admin#pan6.com(#=@)),本站将及时予与删除并致以最深的歉意;

点赞

参与人数 1热心值 +1

给力资源,感谢分享! + 1

查看点赞详情

楼主热贴推荐
华语影视爱好者
BT资源无法下载:戳这里,不会发帖、金币相关等新手问题:戳这里
回复

拉黑 使用道具 举报

为保留有用回复信息,此处有 58 个购买者的感谢留言已隐藏

主题
17
活跃值
3906
热心值
1
盘币
3447
注册时间
2018-7-28
最后登录
2021-12-1
在线时间
507 小时
发表于 2021-11-22 11:01:54 | 显示全部楼层
这个电影还可以看下的
回复

拉黑 使用道具 举报

主题
0
活跃值
1917
热心值
0
盘币
583
注册时间
2018-3-9
最后登录
2021-11-29
在线时间
16 小时
发表于 2021-11-23 02:48:16 | 显示全部楼层
这个是好东西 感谢楼主分享了先
回复

拉黑 使用道具 举报

主题
0
活跃值
315
热心值
0
盘币
4
注册时间
2018-12-11
最后登录
2021-12-1
在线时间
62 小时
发表于 2021-11-23 08:30:02 | 显示全部楼层
许志安的电影不怎么多啊!多谢楼主分享,值得一看!
回复

拉黑 使用道具 举报

主题
1
活跃值
2593
热心值
0
盘币
76
注册时间
2017-12-19
最后登录
2021-12-1
在线时间
42 小时
发表于 6 天前 | 显示全部楼层
好电影  好资源
回复

拉黑 使用道具 举报

严禁灌水、讽刺、挖苦、辱骂分享者行为。回复前请详读:点击进入 理性回复,以免永久封禁。
您需要登录后才可以回帖 登录 | 加入论坛

本版积分规则

免责声明:本站所有资源均收集自互联网,没有提供影片资源存储,也未参与录制、上传。若本站收录的资源涉及您的版权或知识产权或其他利益,请附上版权证明邮件告知,在收到邮件后24小时内删除。

Copyright © 2012 [盘乐网] 管理员邮箱:admin#pan6.com(#=@)

站长信箱|sitemap|手机版|小黑屋|百度统计|盘乐网 ( 粤ICP备18120611号 )

快速回复 返回顶部 返回列表