盘乐网

 找回密码
 加入论坛
提示:多个关键词中间加空格 例如:天龙八部 星河
楼主: 至尊宝c

[WEB-DL] [中国香港][2001][一个烂赌的传说][吴镇宇/关秀媚/李灿森][剧情][国粤语硬中字][2160P][MKV/2.6G][超清修复无水印][美亚修复] 含百度网盘 含115网盘

  [复制链接]

主题
3188
活跃值
21649
热心值
2627
盘币
363288
注册时间
2018-4-7
最后登录
2022-1-26
在线时间
1797 小时

长期在线阳光心情老会员勋章鼎力支持我是土豪优秀会员普通精华热心人士爱心满满灌水之王荣誉会员资源组成员动漫达人夜猫子

发表于 2021-12-2 16:51:48 | 显示全部楼层 |阅读模式
请尊重分享者,本资源仅限交流未经楼主同意严禁转载或盈利,违者封号处理!
cover_gaitubao_455x637.jpg

◎译  名 一个烂赌的传说 / A Gambler's Story
◎片  名 一個爛賭的傳說
◎年  代 2001
◎产  地 中国香港
◎类  别 剧情
◎语  言 汉语普通话/粤语
◎上映日期 2001-10-11(中国香港)
◎IMDb评星  ★★★★★★✦☆☆☆
◎IMDb评分  6.5/10 from 50 users
◎IMDb链接  https://www.imdb.com/title/tt0445841/
◎豆瓣评星 ★★★★☆
◎豆瓣评分 7.9/10 from 7,294 users
◎豆瓣链接 https://movie.douban.com/subject/1419993/
◎片  长 01:34:26
◎导  演 麦子善 / Marco Mak
◎演  员 吴镇宇 / Francis Ng
      关秀媚 / Suki Kwan
      李灿森 / Sam Lee
      黄泆潼 / Yat Tung Wong
      姜皓文 / Philip Keung Ho-Man
      黄德斌 / Tak-bun Wong
      林雪 / Suet Lam
      曹达华 / Tat-wah Cho
      司马华龙 / Wah Lung Szema
◎编  剧 麦子善 / Marco Mak
      王晶 / Jing Wong
◎制  片  人 王晶 / Jing Wong
◎摄  影 缪健辉 / Tony Miu

◎标  签 吴镇宇 | 香港 | 香港电影 | 黑色 | 黑色幽默 | 爱情 | 剧情 | 2001

◎简  介 

  舒奇是一个天生的赌徒,到澳门赌钱,每次都大起大落,因为一次糊里糊涂与艺员雪发生关系,得到三千块,后投注站买马赢了十五万,他便往卡拉OK消遣,认识了逢赌必输、有一个「玻璃骨」症弟弟的妈妈桑——公主。
  因为欠债,舒奇被禁锢,公主于是致电卡拉OK熟客莫UNCLE求助,莫UNCLE答应了付五十万,但要公主陪他一个月。之后莫UNCLE突然离奇死亡。混乱中,两人在债主FACE哥手中逃出,不久,却再次遇到莫UNCLE,原来他没有死去……
  香港一贯赌片甚多,但像本片这样,集中描写一个烂赌鬼的特性,以及他的传奇命运,就很罕见,还奇在拍得不落俗套。本片没有像通常的赌片那样卖弄赌术,没有精美包装和名牌格调,因此并未引起影迷注意,实际上这一部是不错的赌片。


◎截    图
一个烂赌的传说.2001.WEB-DL.A Gambler's Story.2Audio.@至尊宝.mkv_20211202_14.jpg 一个烂赌的传说.2001.WEB-DL.A Gambler's Story.2Audio.@至尊宝.mkv_20211202_14.jpg 一个烂赌的传说.2001.WEB-DL.A Gambler's Story.2Audio.@至尊宝.mkv_20211202_14.jpg 一个烂赌的传说.2001.WEB-DL.A Gambler's Story.2Audio.@至尊宝.mkv_20211202_14.jpg

一个烂赌的传说.2001.WEB-DL.A Gambler's Story.2Audio.@至尊宝.mkv.jpg
  1. Video
  2. ID                             : 1
  3. Format                         : HEVC
  4. Format/Info                    : High Efficiency Video Coding
  5. Format profile                 : Main@L5@Main
  6. Codec ID                       : V_MPEGH/ISO/HEVC
  7. Duration                       : 1 h 34 min
  8. Bit rate                       : 3 803 kb/s
  9. Width                          : 3 840 pixels
  10. Height                         : 2 160 pixels
  11. Display aspect ratio           : 16:9
  12. Frame rate mode                : Constant
  13. Frame rate                     : 24.000 FPS
  14. Color space                    : YUV
  15. Chroma subsampling             : 4:2:0
  16. Bit depth                      : 8 bits
  17. Bits/(Pixel*Frame)             : 0.019
  18. Stream size                    : 2.51 GiB (95%)
  19. Title                          : @至尊宝
  20. Language                       : Chinese
  21. Default                        : Yes
  22. Forced                         : No

  23. Audio #1
  24. ID                             : 2
  25. Format                         : AAC LC
  26. Format/Info                    : Advanced Audio Codec Low Complexity
  27. Codec ID                       : A_AAC-2
  28. Duration                       : 1 h 34 min
  29. Bit rate                       : 124 kb/s
  30. Channel(s)                     : 2 channels
  31. Channel layout                 : L R
  32. Sampling rate                  : 44.1 kHz
  33. Frame rate                     : 43.066 FPS (1024 SPF)
  34. Compression mode               : Lossy
  35. Stream size                    : 84.0 MiB (3%)
  36. Title                          : 国语
  37. Language                       : Chinese
  38. Default                        : Yes
  39. Forced                         : No

  40. Audio #2
  41. ID                             : 3
  42. Format                         : AAC LC SBR
  43. Format/Info                    : Advanced Audio Codec Low Complexity with Spectral Band Replication
  44. Commercial name                : HE-AAC
  45. Format settings                : Explicit
  46. Codec ID                       : A_AAC-2
  47. Duration                       : 1 h 34 min
  48. Bit rate                       : 63.0 kb/s
  49. Channel(s)                     : 2 channels
  50. Channel layout                 : L R
  51. Sampling rate                  : 44.1 kHz
  52. Frame rate                     : 21.533 FPS (2048 SPF)
  53. Compression mode               : Lossy
  54. Stream size                    : 42.5 MiB (2%)
  55. Title                          : 粤语
  56. Language                       : Chinese
  57. Default                        : No
  58. Forced                         : No

复制代码



点击进入百度网盘下载(←购买前请先验证分享链接是否有效)



此处内容付费可见

此处内容需要向楼主支付盘币或购买VIP才能显示 已有 47 人购买 

支付 5 盘币 升级VIP


该资源其他网盘分享渠道→点此了解功能详情

使用115网盘下载(来自 至尊宝c 的分享,下载需要单独支付 5 盘币)

免责申明 - 论坛版权1、本站所有资源均来自会员分享或网络收集整理,仅供会员交流学习,禁用商业用途或盈利,下载后请在24小时之内删除;
2、本站(www.pan6.com)支持正版,本资源版权归版权方所有,观看或阅读请到相应机构购买正版资源;
3、本站资源均来源于网络,本站不参与录制、上传,如本帖侵犯到任何版权问题,请立即告知本站(admin#pan6.com(#=@)),本站将及时予与删除并致以最深的歉意;
楼主热贴推荐
华语影视爱好者
BT资源无法下载:戳这里,不会发帖、金币相关等新手问题:戳这里
回复

拉黑 使用道具 举报

为保留有用回复信息,此处有 47 个购买者的感谢留言已隐藏

主题
18
活跃值
4021
热心值
1
盘币
3221
注册时间
2018-7-28
最后登录
2022-1-26
在线时间
522 小时
发表于 2022-1-7 10:46:19 | 显示全部楼层
关秀媚真的不错哦。。。
回复

拉黑 使用道具 举报

严禁灌水、讽刺、挖苦、辱骂分享者行为。回复前请详读:点击进入 理性回复,以免永久封禁。
您需要登录后才可以回帖 登录 | 加入论坛

本版积分规则

免责声明:本站所有资源均收集自互联网,没有提供影片资源存储,也未参与录制、上传。若本站收录的资源涉及您的版权或知识产权或其他利益,请附上版权证明邮件告知,在收到邮件后24小时内删除。

Copyright © 2012 [盘乐网] 管理员邮箱:admin#pan6.com(#=@)

站长信箱|sitemap|手机版|小黑屋|百度统计|盘乐网 ( 粤ICP备18120611号 )

快速回复 返回顶部 返回列表