盘乐网

 找回密码
 加入论坛
提示:多个关键词中间加空格 例如:天龙八部 星河
查看: 675|回复: 43

[WEB-DL] [中国香港][2003][失忆界女王][古天乐/应采儿/刘以达][爱情][国粤语简繁软中字][1080P][MKV/3.36G][超清修复无水印][华文修复] 含百度网盘 含115网盘

  [复制链接]

主题
3186
活跃值
21641
热心值
2604
盘币
363701
注册时间
2018-4-7
最后登录
2022-1-21
在线时间
1797 小时

长期在线阳光心情老会员勋章鼎力支持我是土豪优秀会员普通精华热心人士爱心满满灌水之王荣誉会员资源组成员动漫达人夜猫子

发表于 2021-12-27 19:55:49 | 显示全部楼层 |阅读模式
请尊重分享者,本资源仅限交流未经楼主同意严禁转载或盈利,违者封号处理!
p486551329_gaitubao_455x606.jpg

◎译  名 Why Me, Sweetie? / 我的失忆男友 / Why Me, Sweetie ?!
◎片  名 失忆界女王
◎年  代 2003
◎产  地 中国内地 / 中国香港
◎类  别 喜剧 / 爱情
◎语  言 汉语普通话 / 粤语
◎上映日期 2003-04-10
◎IMDb评星  ★★★★★☆☆☆☆☆
◎IMDb评分  5.1/10 from 189 users
◎IMDb链接  https://www.imdb.com/title/tt0379975/
◎豆瓣评星 ★★★☆☆
◎豆瓣评分 6.2/10 from 28,662 users
◎豆瓣链接 https://movie.douban.com/subject/1302769/
◎片  长 97 分钟(香港)
◎导  演 马楚成 / Jingle Ma
◎演  员 古天乐 / Louis Koo
      应采儿 / Cherrie Ying
      刘以达 / Tats Lau
      刘蓓 / Bei Liu
      邵小珊 / Xiaoshan Shao | 饰 媚媚
      隋俊波 / Junbo Sui
      吉祥 / Xiang Ji
      林海海 / Haihai Lin
      韩雯雯 / Wenwen Han
◎编  剧 陈淑贤 / Susan Chan
◎摄  影 陈国雄 / Kwok Hung Chan
◎美  术 张世宏 / Silver Cheung
◎视觉特效 黄宏达 / Victor Wong
      黄宏显 / Eddy Wong

◎标  签 香港电影 | 香港 | 古天乐 | 爱情 | 喜剧 | 应采儿 | 我的失忆男友 | 马楚成

◎简  介 

  丁叮(应采儿 饰)从美国回来后到了北京戏剧学院读书,一次偶然的机会她认识了阿当(古天乐 饰),这名大帅哥是出了名的“花心大萝卜”,他却对性格爽朗,外表清秀的丁叮。他遇见丁叮的时候正在甩掉一堆追求他的女生。两人在匆忙间一见钟情,彼此倾心。
  不久,阿当便向丁叮表达了爱意,两人顺利坠入爱河,共享了许多甜蜜的热恋时光。可是好景不长,阿当患上了失忆症,把丁叮当作了陌路人。丁叮顿时晴天霹雳,但面对深爱的阿当,她不懈努力,要与阿当重新开始。
  丁叮以为两人能够从此幸福的走下去,但阿当的失忆症状总是不时发作,一次次忘掉丁叮……


◎截    图
失忆界女王.2003.WEB-DL.Why Me, Sweetie.2Audio.@至尊宝.mkv_20211227_001319.576.jpg 失忆界女王.2003.WEB-DL.Why Me, Sweetie.2Audio.@至尊宝.mkv_20211227_001302.886.jpg 失忆界女王.2003.WEB-DL.Why Me, Sweetie.2Audio.@至尊宝.mkv_20211227_001256.870.jpg 失忆界女王.2003.WEB-DL.Why Me, Sweetie.2Audio.@至尊宝.mkv_20211227_001237.969.jpg

失忆界女王.2003.WEB-DL.Why Me, Sweetie.2Audio.@至尊宝.mkv.jpg

  1. Video
  2. ID                             : 1
  3. Format                         : AVC
  4. Format/Info                    : Advanced Video Codec
  5. Format profile                 : High@L4.1
  6. Format settings                : CABAC / 3 Ref Frames
  7. Format settings, CABAC         : Yes
  8. Format settings, Reference fra : 3 frames
  9. Codec ID                       : V_MPEG4/ISO/AVC
  10. Duration                       : 1 h 37 min
  11. Bit rate                       : 4 716 kb/s
  12. Width                          : 1 896 pixels
  13. Height                         : 1 080 pixels
  14. Display aspect ratio           : 16:9
  15. Frame rate mode                : Constant
  16. Frame rate                     : 25.000 FPS
  17. Color space                    : YUV
  18. Chroma subsampling             : 4:2:0
  19. Bit depth                      : 8 bits
  20. Scan type                      : Progressive
  21. Bits/(Pixel*Frame)             : 0.092
  22. Stream size                    : 3.21 GiB (96%)
  23. Title                          : @至尊宝
  24. Language                       : Chinese
  25. Default                        : Yes
  26. Forced                         : No

  27. Audio #1
  28. ID                             : 2
  29. Format                         : E-AC-3
  30. Format/Info                    : Enhanced AC-3
  31. Commercial name                : Dolby Digital Plus
  32. Codec ID                       : A_EAC3
  33. Duration                       : 1 h 37 min
  34. Bit rate mode                  : Constant
  35. Bit rate                       : 96.0 kb/s
  36. Channel(s)                     : 2 channels
  37. Channel layout                 : L R
  38. Sampling rate                  : 48.0 kHz
  39. Frame rate                     : 31.250 FPS (1536 SPF)
  40. Compression mode               : Lossy
  41. Stream size                    : 67.0 MiB (2%)
  42. Title                          : 国语
  43. Language                       : Chinese
  44. Service kind                   : Complete Main
  45. Default                        : Yes
  46. Forced                         : No

  47. Audio #2
  48. ID                             : 3
  49. Format                         : E-AC-3
  50. Format/Info                    : Enhanced AC-3
  51. Commercial name                : Dolby Digital Plus
  52. Codec ID                       : A_EAC3
  53. Duration                       : 1 h 37 min
  54. Bit rate mode                  : Constant
  55. Bit rate                       : 96.0 kb/s
  56. Channel(s)                     : 2 channels
  57. Channel layout                 : L R
  58. Sampling rate                  : 48.0 kHz
  59. Frame rate                     : 31.250 FPS (1536 SPF)
  60. Compression mode               : Lossy
  61. Stream size                    : 67.0 MiB (2%)
  62. Title                          : 粤语
  63. Language                       : Chinese
  64. Service kind                   : Complete Main
  65. Default                        : No
  66. Forced                         : No

  67. Text #1
  68. ID                             : 4
  69. Format                         : ASS
  70. Codec ID                       : S_TEXT/ASS
  71. Codec ID/Info                  : Advanced Sub Station Alpha
  72. Duration                       : 1 h 32 min
  73. Bit rate                       : 134 b/s
  74. Count of elements              : 1307
  75. Compression mode               : Lossless
  76. Stream size                    : 91.6 KiB (0%)
  77. Title                          : 简体中文ASS
  78. Language                       : Chinese
  79. Default                        : Yes
  80. Forced                         : No

  81. Text #2
  82. ID                             : 5
  83. Format                         : ASS
  84. Codec ID                       : S_TEXT/ASS
  85. Codec ID/Info                  : Advanced Sub Station Alpha
  86. Duration                       : 1 h 32 min
  87. Bit rate                       : 134 b/s
  88. Count of elements              : 1307
  89. Compression mode               : Lossless
  90. Stream size                    : 91.6 KiB (0%)
  91. Title                          : 繁体中文ASS
  92. Language                       : Chinese
  93. Default                        : No
  94. Forced                         : No

  95. Text #3
  96. ID                             : 6
  97. Format                         : UTF-8
  98. Codec ID                       : S_TEXT/UTF8
  99. Codec ID/Info                  : UTF-8 Plain Text
  100. Duration                       : 1 h 32 min
  101. Bit rate                       : 44 b/s
  102. Count of elements              : 1307
  103. Stream size                    : 30.2 KiB (0%)
  104. Title                          : 简体中文SRT
  105. Language                       : Chinese
  106. Default                        : No
  107. Forced                         : No

  108. Text #4
  109. ID                             : 7
  110. Format                         : UTF-8
  111. Codec ID                       : S_TEXT/UTF8
  112. Codec ID/Info                  : UTF-8 Plain Text
  113. Duration                       : 1 h 32 min
  114. Bit rate                       : 44 b/s
  115. Count of elements              : 1307
  116. Stream size                    : 30.2 KiB (0%)
  117. Title                          : 繁体中文SRT
  118. Language                       : Chinese
  119. Default                        : No
  120. Forced                         : No

  121. Menu
  122. 00:00:00.000                   : en:第 01 章
  123. 00:05:50.083                   : en:第 02 章
  124. 00:12:22.416                   : en:第 03 章
  125. 00:21:01.041                   : en:第 04 章
  126. 00:30:21.041                   : en:第 05 章
  127. 00:42:55.333                   : en:第 06 章
  128. 00:51:59.166                   : en:第 07 章
  129. 00:56:15.916                   : en:第 08 章
  130. 01:04:06.708                   : en:第 09 章
  131. 01:13:55.250                   : en:第 10 章
  132. 01:22:41.458                   : en:第 11 章
  133. 01:30:59.083                   : en:第 12 章

复制代码




点击进入百度网盘下载(←购买前请先验证分享链接是否有效)



此处内容付费可见

此处内容需要向楼主支付盘币或购买VIP才能显示 已有 41 人购买 

支付 12 盘币 升级VIP


该资源其他网盘分享渠道→点此了解功能详情

使用115网盘下载(来自 至尊宝c 的分享,下载需要单独支付 12 盘币)

免责申明 - 论坛版权1、本站所有资源均来自会员分享或网络收集整理,仅供会员交流学习,禁用商业用途或盈利,下载后请在24小时之内删除;
2、本站(www.pan6.com)支持正版,本资源版权归版权方所有,观看或阅读请到相应机构购买正版资源;
3、本站资源均来源于网络,本站不参与录制、上传,如本帖侵犯到任何版权问题,请立即告知本站(admin#pan6.com(#=@)),本站将及时予与删除并致以最深的歉意;

点赞

参与人数 1热心值 +1

给力资源,感谢分享! + 1

查看点赞详情

楼主热贴推荐
华语影视爱好者
BT资源无法下载:戳这里,不会发帖、金币相关等新手问题:戳这里
回复

拉黑 使用道具 举报

为保留有用回复信息,此处有 41 个购买者的感谢留言已隐藏

主题
0
活跃值
2011
热心值
0
盘币
631
注册时间
2018-3-9
最后登录
2022-1-21
在线时间
17 小时
发表于 2021-12-28 08:20:26 | 显示全部楼层
这个是经典啊 感谢楼主分享了先
回复

拉黑 使用道具 举报

主题
1
活跃值
10942
热心值
2
盘币
11
注册时间
2015-5-3
最后登录
2022-1-20
在线时间
589 小时
发表于 2021-12-30 11:43:10 | 显示全部楼层
感谢楼主分享!
回复

拉黑 使用道具 举报

严禁灌水、讽刺、挖苦、辱骂分享者行为。回复前请详读:点击进入 理性回复,以免永久封禁。
您需要登录后才可以回帖 登录 | 加入论坛

本版积分规则

免责声明:本站所有资源均收集自互联网,没有提供影片资源存储,也未参与录制、上传。若本站收录的资源涉及您的版权或知识产权或其他利益,请附上版权证明邮件告知,在收到邮件后24小时内删除。

Copyright © 2012 [盘乐网] 管理员邮箱:admin#pan6.com(#=@)

站长信箱|sitemap|手机版|小黑屋|百度统计|盘乐网 ( 粤ICP备18120611号 )

快速回复 返回顶部 返回列表