盘乐网

 找回密码
 加入论坛
提示:多个关键词中间加空格 例如:天龙八部 星河
查看: 629|回复: 52

[WEB-DL] [中国香港][1989][我要富贵][张学友/张曼玉/周海媚][剧情][国粤语简繁软中字][1080P][MKV/3.11G][超清修复无水印][寰亚修复] 含百度网盘 含115网盘

  [复制链接]

主题
3186
活跃值
21641
热心值
2604
盘币
363701
注册时间
2018-4-7
最后登录
2022-1-21
在线时间
1797 小时

长期在线阳光心情老会员勋章鼎力支持我是土豪优秀会员普通精华热心人士爱心满满灌水之王荣誉会员资源组成员动漫达人夜猫子

发表于 2022-1-7 15:18:27 | 显示全部楼层 |阅读模式
请尊重分享者,本资源仅限交流未经楼主同意严禁转载或盈利,违者封号处理!
p2702899992_gaitubao_455x636.jpg

◎译  名 我要富贵 / 父子情深 / My Dear Son
◎片  名 我要富貴
◎年  代 1989
◎产  地 中国香港
◎类  别 剧情
◎语  言 汉语普通话/粤语
◎上映日期 1989-05-25(中国香港)
◎IMDb评星  ★★★★★★✦☆☆☆
◎IMDb评分  6.4/10 from 39 users
◎IMDb链接  https://www.imdb.com/title/tt0103279/
◎豆瓣评星 ★★★✦☆
◎豆瓣评分 7.1/10 from 1,170 users
◎豆瓣链接 https://movie.douban.com/subject/1307682/
◎片  长 92分钟
◎导  演 姜大卫 / David Chiang
◎演  员 张学友 / Jacky Cheung
      张曼玉 / Maggie Cheung
      董骠 / Bill Tung
      周海媚 / Kathy Chow
      刘青云 / Sean Lau
      秦沛 / Paul Chun
      王霄 / Kelvin Wong
      林富伟 / Fu-wai Lam
      王文成 / Man Shing Wong
      谢伟杰 / Wai-Kit Tse
      魏添财
◎编  剧 侯志强 / Chi-Keung Hau
◎动作特技 元彬 / Bun Yuen
◎其  它 侯志强 / Chi-Keung Hau

◎标  签 张学友 | 香港 | 张曼玉 | 香港电影 | 刘青云 | 姜大卫 | 董骠 | 剧情

◎简  介 

  大学毕业生天翔(张学友 饰)出身贫寒,其父猜叔(董骠 饰)靠在榕树头卖唱养活天翔以及年幼的一子一女,天翔不愿父亲在市场唱黄色小曲挣钱,但无奈工资微薄,只得在同事的侧目中忍受。天翔在工作中踏实肯干,在好友大傻(刘青云 饰)的帮助下为公司立下功劳,同时大老板的妹妹比蒂(周海媚 饰)对天翔也颇为有意,二人感情渐浓之际,大老板却因天翔一家的地位低下而中断了这段姻缘,天翔只得从相邻的舞女周枫(张曼玉 饰)处获得情感慰藉。失去工作的天翔加入黑道团伙,与大傻一起同另一势力高佬森连番拼杀,高佬森一伙将大傻和周枫害死,天翔向高佬森寻仇之际,猜叔为保全儿子挺身而出……


◎截    图
我要富贵.1989.WEB=DL.My Dear Son.2Audio.@至尊宝.mkv_20220107_142105.876.jpg 我要富贵.1989.WEB=DL.My Dear Son.2Audio.@至尊宝.mkv_20220107_142140.088.jpg 我要富贵.1989.WEB=DL.My Dear Son.2Audio.@至尊宝.mkv_20220107_142011.384.jpg 我要富贵.1989.WEB=DL.My Dear Son.2Audio.@至尊宝.mkv_20220107_141952.986.jpg

我要富贵.1989.WEB=DL.My Dear Son.2Audio.@至尊宝.mkv.jpg
  1. Video
  2. ID                             : 1
  3. Format                         : AVC
  4. Format/Info                    : Advanced Video Codec
  5. Format profile                 : Main@L4.1
  6. Format settings                : 4 Ref Frames
  7. Format settings, CABAC         : No
  8. Format settings, Reference fra : 4 frames
  9. Format settings, GOP           : M=1, N=25
  10. Codec ID                       : V_MPEG4/ISO/AVC
  11. Duration                       : 1 h 36 min
  12. Bit rate mode                  : Constant
  13. Bit rate                       : 4 500 kb/s
  14. Width                          : 1 920 pixels
  15. Height                         : 1 080 pixels
  16. Display aspect ratio           : 16:9
  17. Frame rate mode                : Constant
  18. Frame rate                     : 23.976 (24000/1001) FPS
  19. Color space                    : YUV
  20. Chroma subsampling             : 4:2:0
  21. Bit depth                      : 8 bits
  22. Scan type                      : Progressive
  23. Bits/(Pixel*Frame)             : 0.091
  24. Stream size                    : 3.02 GiB (97%)
  25. Title                          : @至尊宝
  26. Language                       : Chinese
  27. Default                        : Yes
  28. Forced                         : No
  29. Color range                    : Limited

  30. Audio #1
  31. ID                             : 2
  32. Format                         : AAC LC
  33. Format/Info                    : Advanced Audio Codec Low Complexity
  34. Codec ID                       : A_AAC-2
  35. Duration                       : 1 h 36 min
  36. Bit rate                       : 53.7 kb/s
  37. Channel(s)                     : 2 channels
  38. Channel layout                 : L R
  39. Sampling rate                  : 44.1 kHz
  40. Frame rate                     : 43.066 FPS (1024 SPF)
  41. Compression mode               : Lossy
  42. Stream size                    : 36.9 MiB (1%)
  43. Title                          : 国语
  44. Language                       : Chinese
  45. Default                        : Yes
  46. Forced                         : No

  47. Audio #2
  48. ID                             : 3
  49. Format                         : AAC LC
  50. Format/Info                    : Advanced Audio Codec Low Complexity
  51. Codec ID                       : A_AAC-2
  52. Duration                       : 1 h 36 min
  53. Bit rate                       : 53.7 kb/s
  54. Channel(s)                     : 2 channels
  55. Channel layout                 : L R
  56. Sampling rate                  : 44.1 kHz
  57. Frame rate                     : 43.066 FPS (1024 SPF)
  58. Compression mode               : Lossy
  59. Stream size                    : 36.9 MiB (1%)
  60. Title                          : 粤语
  61. Language                       : Chinese
  62. Default                        : No
  63. Forced                         : No

  64. Text #1
  65. ID                             : 4
  66. Format                         : ASS
  67. Codec ID                       : S_TEXT/ASS
  68. Codec ID/Info                  : Advanced Sub Station Alpha
  69. Duration                       : 1 h 29 min
  70. Bit rate                       : 180 b/s
  71. Count of elements              : 1655
  72. Compression mode               : Lossless
  73. Stream size                    : 119 KiB (0%)
  74. Title                          : 简体中文ASS
  75. Language                       : Chinese
  76. Default                        : Yes
  77. Forced                         : No

  78. Text #2
  79. ID                             : 5
  80. Format                         : ASS
  81. Codec ID                       : S_TEXT/ASS
  82. Codec ID/Info                  : Advanced Sub Station Alpha
  83. Duration                       : 1 h 29 min
  84. Bit rate                       : 180 b/s
  85. Count of elements              : 1655
  86. Compression mode               : Lossless
  87. Stream size                    : 119 KiB (0%)
  88. Title                          : 繁体中文ASS
  89. Language                       : Chinese
  90. Default                        : No
  91. Forced                         : No

  92. Text #3
  93. ID                             : 6
  94. Format                         : UTF-8
  95. Codec ID                       : S_TEXT/UTF8
  96. Codec ID/Info                  : UTF-8 Plain Text
  97. Duration                       : 1 h 29 min
  98. Bit rate                       : 62 b/s
  99. Count of elements              : 1655
  100. Stream size                    : 40.8 KiB (0%)
  101. Title                          : 简体中文SRT
  102. Language                       : Chinese
  103. Default                        : No
  104. Forced                         : No

  105. Text #4
  106. ID                             : 7
  107. Format                         : UTF-8
  108. Codec ID                       : S_TEXT/UTF8
  109. Codec ID/Info                  : UTF-8 Plain Text
  110. Duration                       : 1 h 29 min
  111. Bit rate                       : 62 b/s
  112. Count of elements              : 1655
  113. Stream size                    : 40.8 KiB (0%)
  114. Title                          : 繁体中文SRT
  115. Language                       : Chinese
  116. Default                        : No
  117. Forced                         : No

  118. Menu
  119. 00:00:00.000                   : en:第 01 章
  120. 00:05:50.083                   : en:第 02 章
  121. 00:12:22.416                   : en:第 03 章
  122. 00:21:01.041                   : en:第 04 章
  123. 00:30:21.041                   : en:第 05 章
  124. 00:42:55.333                   : en:第 06 章
  125. 00:51:59.166                   : en:第 07 章
  126. 00:56:15.916                   : en:第 08 章
  127. 01:04:06.708                   : en:第 09 章
  128. 01:13:55.250                   : en:第 10 章
  129. 01:22:41.458                   : en:第 11 章
  130. 01:30:59.083                   : en:第 12 章

复制代码



点击进入百度网盘下载(←购买前请先验证分享链接是否有效)



此处内容付费可见

此处内容需要向楼主支付盘币或购买VIP才能显示 已有 43 人购买 

支付 12 盘币 升级VIP


该资源其他网盘分享渠道→点此了解功能详情

使用115网盘下载(来自 88455n 的分享,下载需要单独支付 12 盘币)

免责申明 - 论坛版权1、本站所有资源均来自会员分享或网络收集整理,仅供会员交流学习,禁用商业用途或盈利,下载后请在24小时之内删除;
2、本站(www.pan6.com)支持正版,本资源版权归版权方所有,观看或阅读请到相应机构购买正版资源;
3、本站资源均来源于网络,本站不参与录制、上传,如本帖侵犯到任何版权问题,请立即告知本站(admin#pan6.com(#=@)),本站将及时予与删除并致以最深的歉意;
楼主热贴推荐
华语影视爱好者
BT资源无法下载:戳这里,不会发帖、金币相关等新手问题:戳这里
回复

拉黑 使用道具 举报

为保留有用回复信息,此处有 43 个购买者的感谢留言已隐藏

主题
454
活跃值
4981
热心值
214
盘币
48536
注册时间
2017-11-10
最后登录
2022-1-20
在线时间
2743 小时
发表于 2022-1-7 16:10:46 | 显示全部楼层
鼎力支持,散光那个垃圾论坛的资源,搞死他,哈哈哈
支持原版影视,杜绝任何配音。 ...
回复

拉黑 使用道具 举报

主题
3186
活跃值
21641
热心值
2604
盘币
363701
注册时间
2018-4-7
最后登录
2022-1-21
在线时间
1797 小时

长期在线阳光心情老会员勋章鼎力支持我是土豪优秀会员普通精华热心人士爱心满满灌水之王荣誉会员资源组成员动漫达人夜猫子

 楼主| 发表于 2022-1-7 16:12:32 | 显示全部楼层
叶耿波 发表于 2022-1-7 16:10
鼎力支持,散光那个垃圾论坛的资源,搞死他,哈哈哈

这逼已经急了,还去发帖
华语影视爱好者
回复

拉黑 使用道具 举报

主题
454
活跃值
4981
热心值
214
盘币
48536
注册时间
2017-11-10
最后登录
2022-1-20
在线时间
2743 小时
发表于 2022-1-7 16:28:25 | 显示全部楼层
至尊宝c 发表于 2022-1-7 16:12
这逼已经急了,还去发帖

弄死他,他已经把论坛设置只能看第一页,其他页面要会员才能浏览。得罪人多,已经高度戒备了,笑死我
支持原版影视,杜绝任何配音。 ...
回复

拉黑 使用道具 举报

主题
3186
活跃值
21641
热心值
2604
盘币
363701
注册时间
2018-4-7
最后登录
2022-1-21
在线时间
1797 小时

长期在线阳光心情老会员勋章鼎力支持我是土豪优秀会员普通精华热心人士爱心满满灌水之王荣誉会员资源组成员动漫达人夜猫子

 楼主| 发表于 2022-1-7 16:31:39 | 显示全部楼层
叶耿波 发表于 2022-1-7 16:28
弄死他,他已经把论坛设置只能看第一页,其他页面要会员才能浏览。得罪人多,已经高度戒备了,笑死我 ...

转载太多了,怕别人查封号,哈哈
华语影视爱好者
回复

拉黑 使用道具 举报

主题
454
活跃值
4981
热心值
214
盘币
48536
注册时间
2017-11-10
最后登录
2022-1-20
在线时间
2743 小时
发表于 2022-1-7 16:34:22 | 显示全部楼层
至尊宝c 发表于 2022-1-7 16:31
转载太多了,怕别人查封号,哈哈

是的,估计他距离倒闭指日可待
支持原版影视,杜绝任何配音。 ...
回复

拉黑 使用道具 举报

主题
29
活跃值
1901
热心值
35
盘币
633
注册时间
2017-9-28
最后登录
2022-1-20
在线时间
349 小时

长期在线阳光心情老会员勋章

发表于 2022-1-7 19:32:57 | 显示全部楼层
那边就几把乱封号 别理他就完了
回复

拉黑 使用道具 举报

主题
454
活跃值
4981
热心值
214
盘币
48536
注册时间
2017-11-10
最后登录
2022-1-20
在线时间
2743 小时
发表于 2022-1-7 21:10:29 | 显示全部楼层
fennie 发表于 2022-1-7 19:32
那边就几把乱封号 别理他就完了

他们那边就是贼窝,专门骗钱买会员,不充值就封号,一发现资源被散播就乱封人家号,封号了,需要买又要花钱注册,这套路可深,他们已经没有什么好资源,最近都在散播本论坛资源,简直就是畜生所为,祝他们早日人和论坛归西,永不翻身。
支持原版影视,杜绝任何配音。 ...
回复

拉黑 使用道具 举报

主题
0
活跃值
398
热心值
0
盘币
0
注册时间
2021-10-19
最后登录
2022-1-20
在线时间
21 小时
发表于 2022-1-7 23:20:28 | 显示全部楼层
谢谢楼主分享,辛苦了!
回复

拉黑 使用道具 举报

主题
0
活跃值
6819
热心值
0
盘币
1209
注册时间
2017-10-21
最后登录
2022-1-20
在线时间
92 小时
发表于 2022-1-8 01:26:51 | 显示全部楼层
期待楼主带给大家更多精品!
回复

拉黑 使用道具 举报

主题
1
活跃值
6671
热心值
0
盘币
8
注册时间
2017-1-9
最后登录
2022-1-20
在线时间
113 小时

老会员勋章长期在线灌水之王

发表于 2022-1-8 10:43:59 | 显示全部楼层
这个没看过
回复

拉黑 使用道具 举报

主题
0
活跃值
4795
热心值
0
盘币
901
注册时间
2018-4-20
最后登录
2022-1-20
在线时间
310 小时
发表于 2022-1-8 12:05:48 | 显示全部楼层
谢谢楼主的精彩分享!
回复

拉黑 使用道具 举报

主题
1758
活跃值
11427
热心值
337
盘币
6820
注册时间
2018-1-4
最后登录
2022-1-20
在线时间
639 小时
发表于 2022-1-11 10:20:03 | 显示全部楼层
叶耿波 发表于 2022-1-7 16:10
鼎力支持,散光那个垃圾论坛的资源,搞死他,哈哈哈

在说哪个呢,看不懂呀
回复

拉黑 使用道具 举报

主题
0
活跃值
32
热心值
0
盘币
0
注册时间
2022-1-16
最后登录
2022-1-21
在线时间
3 小时
发表于 昨天 03:29 | 显示全部楼层
谢谢分享
回复

拉黑 使用道具 举报

严禁灌水、讽刺、挖苦、辱骂分享者行为。回复前请详读:点击进入 理性回复,以免永久封禁。
您需要登录后才可以回帖 登录 | 加入论坛

本版积分规则

免责声明:本站所有资源均收集自互联网,没有提供影片资源存储,也未参与录制、上传。若本站收录的资源涉及您的版权或知识产权或其他利益,请附上版权证明邮件告知,在收到邮件后24小时内删除。

Copyright © 2012 [盘乐网] 管理员邮箱:admin#pan6.com(#=@)

站长信箱|sitemap|手机版|小黑屋|百度统计|盘乐网 ( 粤ICP备18120611号 )

快速回复 返回顶部 返回列表